  0
SECTION
  2
HEADER
  9
$ACADVER
  1
AC1015
  9
$ACADMAINTVER
 70
     6
  9
$DWGCODEPAGE
  3
ANSI_1252
  9
$INSBASE
 10
0.0
 20
0.0
 30
0.0
  9
$EXTMIN
 10
0.0
 20
0.0
 30
0.0
  9
$EXTMAX
 10
863.6
 20
558.8
 30
0.0
  9
$LIMMIN
 10
0.0
 20
0.0
  9
$LIMMAX
 10
863.6
 20
558.8
  9
$ORTHOMODE
 70
     0
  9
$REGENMODE
 70
     1
  9
$FILLMODE
 70
     1
  9
$QTEXTMODE
 70
     0
  9
$MIRRTEXT
 70
     1
  9
$LTSCALE
 40
2.0
  9
$ATTMODE
 70
     1
  9
$TEXTSIZE
 40
6.35
  9
$TRACEWID
 40
1.0
  9
$TEXTSTYLE
  7
STANDARD
  9
$CLAYER
  8
0
  9
$CELTYPE
  6
ByLayer
  9
$CECOLOR
 62
   256
  9
$CELTSCALE
 40
1.0
  9
$DISPSILH
 70
     0
  9
$DIMSCALE
 40
1.0
  9
$DIMASZ
 40
4.0
  9
$DIMEXO
 40
1.524
  9
$DIMDLI
 40
3.75
  9
$DIMRND
 40
0.0
  9
$DIMDLE
 40
0.0
  9
$DIMEXE
 40
1.524
  9
$DIMTP
 40
0.0
  9
$DIMTM
 40
0.0
  9
$DIMTXT
 40
6.35
  9
$DIMCEN
 40
2.5
  9
$DIMTSZ
 40
0.0
  9
$DIMTOL
 70
     0
  9
$DIMLIM
 70
     0
  9
$DIMTIH
 70
     1
  9
$DIMTOH
 70
     1
  9
$DIMSE1
 70
     0
  9
$DIMSE2
 70
     0
  9
$DIMTAD
 70
     0
  9
$DIMZIN
 70
     1
  9
$DIMBLK
  1

  9
$DIMASO
 70
     1
  9
$DIMSHO
 70
     1
  9
$DIMPOST
  1

  9
$DIMAPOST
  1

  9
$DIMALT
 70
     0
  9
$DIMALTD
 70
     3
  9
$DIMALTF
 40
0.0393700787
  9
$DIMLFAC
 40
1.0
  9
$DIMTOFL
 70
     1
  9
$DIMTVP
 40
0.0
  9
$DIMTIX
 70
     0
  9
$DIMSOXD
 70
     0
  9
$DIMSAH
 70
     0
  9
$DIMBLK1
  1

  9
$DIMBLK2
  1

  9
$DIMSTYLE
  2
ISO-25
  9
$DIMCLRD
 70
     0
  9
$DIMCLRE
 70
     0
  9
$DIMCLRT
 70
     0
  9
$DIMTFAC
 40
1.0
  9
$DIMGAP
 40
3.048
  9
$DIMJUST
 70
     0
  9
$DIMSD1
 70
     0
  9
$DIMSD2
 70
     0
  9
$DIMTOLJ
 70
     0
  9
$DIMTZIN
 70
     1
  9
$DIMALTZ
 70
     0
  9
$DIMALTTZ
 70
     0
  9
$DIMUPT
 70
     0
  9
$DIMDEC
 70
     2
  9
$DIMTDEC
 70
     2
  9
$DIMALTU
 70
     2
  9
$DIMALTTD
 70
     3
  9
$DIMTXSTY
  7
STANDARD
  9
$DIMAUNIT
 70
     0
  9
$DIMADEC
 70
     0
  9
$DIMALTRND
 40
0.0
  9
$DIMAZIN
 70
     0
  9
$DIMDSEP
 70
    44
  9
$DIMATFIT
 70
     3
  9
$DIMFRAC
 70
     0
  9
$DIMLDRBLK
  1

  9
$DIMLUNIT
 70
     2
  9
$DIMLWD
 70
    -2
  9
$DIMLWE
 70
    -2
  9
$DIMTMOVE
 70
     0
  9
$LUNITS
 70
     2
  9
$LUPREC
 70
     3
  9
$SKETCHINC
 40
1.0
  9
$FILLETRAD
 40
0.0
  9
$AUNITS
 70
     0
  9
$AUPREC
 70
     0
  9
$MENU
  1
.
  9
$ELEVATION
 40
0.0
  9
$PELEVATION
 40
0.0
  9
$THICKNESS
 40
0.0
  9
$LIMCHECK
 70
     0
  9
$CHAMFERA
 40
0.0
  9
$CHAMFERB
 40
0.0
  9
$CHAMFERC
 40
0.0
  9
$CHAMFERD
 40
0.0
  9
$SKPOLY
 70
     0
  9
$TDCREATE
 40
2460192.387702061
  9
$TDUCREATE
 40
2460192.679368727
  9
$TDUPDATE
 40
2460192.387703993
  9
$TDUUPDATE
 40
2460192.67937066
  9
$TDINDWG
 40
0.0000000116
  9
$TDUSRTIMER
 40
0.0000000116
  9
$USRTIMER
 70
     1
  9
$ANGBASE
 50
0.0
  9
$ANGDIR
 70
     0
  9
$PDMODE
 70
     0
  9
$PDSIZE
 40
-1.0
  9
$PLINEWID
 40
0.0
  9
$SPLFRAME
 70
     0
  9
$SPLINETYPE
 70
     6
  9
$SPLINESEGS
 70
     8
  9
$HANDSEED
  5
56C
  9
$SURFTAB1
 70
     6
  9
$SURFTAB2
 70
     6
  9
$SURFTYPE
 70
     6
  9
$SURFU
 70
     6
  9
$SURFV
 70
     6
  9
$UCSBASE
  2

  9
$UCSNAME
  2

  9
$UCSORG
 10
0.0
 20
0.0
 30
0.0
  9
$UCSXDIR
 10
1.0
 20
0.0
 30
0.0
  9
$UCSYDIR
 10
0.0
 20
1.0
 30
0.0
  9
$UCSORTHOREF
  2

  9
$UCSORTHOVIEW
 70
     0
  9
$UCSORGTOP
 10
0.0
 20
0.0
 30
0.0
  9
$UCSORGBOTTOM
 10
0.0
 20
0.0
 30
0.0
  9
$UCSORGLEFT
 10
0.0
 20
0.0
 30
0.0
  9
$UCSORGRIGHT
 10
0.0
 20
0.0
 30
0.0
  9
$UCSORGFRONT
 10
0.0
 20
0.0
 30
0.0
  9
$UCSORGBACK
 10
0.0
 20
0.0
 30
0.0
  9
$PUCSBASE
  2

  9
$PUCSNAME
  2

  9
$PUCSORG
 10
0.0
 20
0.0
 30
0.0
  9
$PUCSXDIR
 10
1.0
 20
0.0
 30
0.0
  9
$PUCSYDIR
 10
0.0
 20
1.0
 30
0.0
  9
$PUCSORTHOREF
  2

  9
$PUCSORTHOVIEW
 70
     0
  9
$PUCSORGTOP
 10
0.0
 20
0.0
 30
0.0
  9
$PUCSORGBOTTOM
 10
0.0
 20
0.0
 30
0.0
  9
$PUCSORGLEFT
 10
0.0
 20
0.0
 30
0.0
  9
$PUCSORGRIGHT
 10
0.0
 20
0.0
 30
0.0
  9
$PUCSORGFRONT
 10
0.0
 20
0.0
 30
0.0
  9
$PUCSORGBACK
 10
0.0
 20
0.0
 30
0.0
  9
$USERI1
 70
     0
  9
$USERI2
 70
     0
  9
$USERI3
 70
     0
  9
$USERI4
 70
     0
  9
$USERI5
 70
     0
  9
$USERR1
 40
0.0
  9
$USERR2
 40
0.0
  9
$USERR3
 40
0.0
  9
$USERR4
 40
0.0
  9
$USERR5
 40
0.0
  9
$WORLDVIEW
 70
     1
  9
$SHADEDGE
 70
     3
  9
$SHADEDIF
 70
    70
  9
$TILEMODE
 70
     1
  9
$MAXACTVP
 70
    64
  9
$PINSBASE
 10
0.0
 20
0.0
 30
0.0
  9
$PLIMCHECK
 70
     0
  9
$PEXTMIN
 10
1.0000000000E+20
 20
1.0000000000E+20
 30
1.0000000000E+20
  9
$PEXTMAX
 10
-1.0000000000E+20
 20
-1.0000000000E+20
 30
-1.0000000000E+20
  9
$PLIMMIN
 10
0.0
 20
0.0
  9
$PLIMMAX
 10
420.0
 20
297.0
  9
$UNITMODE
 70
     0
  9
$VISRETAIN
 70
     1
  9
$PLINEGEN
 70
     0
  9
$PSLTSCALE
 70
     1
  9
$TREEDEPTH
 70
  3020
  9
$CMLSTYLE
  2
Standard
  9
$CMLJUST
 70
     0
  9
$CMLSCALE
 40
20.0
  9
$PROXYGRAPHICS
 70
     1
  9
$MEASUREMENT
 70
     1
  9
$CELWEIGHT
370
    -1
  9
$ENDCAPS
280
     0
  9
$JOINSTYLE
280
     0
  9
$LWDISPLAY
290
     1
  9
$INSUNITS
 70
     4
  9
$HYPERLINKBASE
  1

  9
$STYLESHEET
  1

  9
$XEDIT
290
     1
  9
$CEPSNTYPE
380
     0
  9
$PSTYLEMODE
290
     1
  9
$FINGERPRINTGUID
  2
{254b24ad-c4f8-4ae8-8b29-739b4cfeb45c}
  9
$VERSIONGUID
  2
{FAEB1C32-E019-11D5-929B-00C0DF256EC4}
  9
$EXTNAMES
290
     1
  9
$PSVPSCALE
 40
0.0
  9
$OLESTARTUP
290
     0
  0
ENDSEC
  0
SECTION
  2
CLASSES
  0
CLASS
  1
ACDBDICTIONARYWDFLT
  2
AcDbDictionaryWithDefault
  3
ObjectDBX Classes
 90
        0
280
     0
281
     0
  0
CLASS
  1
VISUALSTYLE
  2
AcDbVisualStyle
  3
ObjectDBX Classes
 90
     4095
280
     0
281
     0
  0
CLASS
  1
MATERIAL
  2
AcDbMaterial
  3
ObjectDBX Classes
 90
     1153
280
     0
281
     0
  0
CLASS
  1
SCALE
  2
AcDbScale
  3
ObjectDBX Classes
 90
     1153
280
     0
281
     0
  0
CLASS
  1
TABLESTYLE
  2
AcDbTableStyle
  3
ObjectDBX Classes
 90
     4095
280
     0
281
     0
  0
CLASS
  1
MLEADERSTYLE
  2
AcDbMLeaderStyle
  3
ACDB_MLEADERSTYLE_CLASS
 90
     4095
280
     0
281
     0
  0
CLASS
  1
SUN
  2
AcDbSun
  3
SCENEOE
 90
     1153
280
     0
281
     0
  0
CLASS
  1
ACDBPLACEHOLDER
  2
AcDbPlaceHolder
  3
ObjectDBX Classes
 90
        0
280
     0
281
     0
  0
CLASS
  1
LAYOUT
  2
AcDbLayout
  3
ObjectDBX Classes
 90
        0
280
     0
281
     0
  0
ENDSEC
  0
SECTION
  2
TABLES
  0
TABLE
  2
VPORT
  5
8
330
0
100
AcDbSymbolTable
 70
     1
  0
VPORT
  5
29
330
8
100
AcDbSymbolTableRecord
100
AcDbViewportTableRecord
  2
*Active
 70
     0
 10
0.0
 20
0.0
 11
1.0
 21
1.0
 12
431.8
 22
279.4
 13
0.0
 23
0.0
 14
10.0
 24
10.0
 15
10.0
 25
10.0
 16
0.0
 26
0.0
 36
1.0
 17
0.0
 27
0.0
 37
0.0
 40
558.8
 41
1.5454545455
 42
50.0
 43
0.0
 44
0.0
 50
0.0
 51
0.0
 71
     0
 72
  2000
 73
     1
 74
     3
 75
     0
 76
     0
 77
     0
 78
     0
281
     0
 65
     1
110
0.0
120
0.0
130
0.0
111
1.0
121
0.0
131
0.0
112
0.0
122
1.0
132
0.0
 79
     0
146
0.0
  0
ENDTAB
  0
TABLE
  2
LTYPE
  5
5
330
0
100
AcDbSymbolTable
 70
     6
  0
LTYPE
  5
14
330
5
100
AcDbSymbolTableRecord
100
AcDbLinetypeTableRecord
  2
ByBlock
 70
     0
  3

 72
    65
 73
     0
 40
0.0
  0
LTYPE
  5
15
330
5
100
AcDbSymbolTableRecord
100
AcDbLinetypeTableRecord
  2
ByLayer
 70
     0
  3

 72
    65
 73
     0
 40
0.0
  0
LTYPE
  5
16
330
5
100
AcDbSymbolTableRecord
100
AcDbLinetypeTableRecord
  2
Continuous
 70
     0
  3
Solid line
 72
    65
 73
     0
 40
0.0
  0
LTYPE
  5
5E
330
5
100
AcDbSymbolTableRecord
100
AcDbLinetypeTableRecord
  2
HIDDEN
 70
     0
  3
Hidden __ __ __ __ __ __ __ __ __ __ __ __ __ __
 72
    65
 73
     2
 40
1.905
 49
1.27
 74
     0
 49
-0.635
 74
     0
  0
LTYPE
  5
5F
330
5
100
AcDbSymbolTableRecord
100
AcDbLinetypeTableRecord
  2
PHANTOM
 70
     0
  3
Phantom ______  __  __  ______  __  __  ______
 72
    65
 73
     6
 40
12.7
 49
6.35
 74
     0
 49
-1.27
 74
     0
 49
1.27
 74
     0
 49
-1.27
 74
     0
 49
1.27
 74
     0
 49
-1.27
 74
     0
  0
LTYPE
  5
60
330
5
100
AcDbSymbolTableRecord
100
AcDbLinetypeTableRecord
  2
CENTER
 70
     0
  3
Center ____ _ ____ _ ____ _ ____ _ ____ _ ____
 72
    65
 73
     4
 40
10.16
 49
6.35
 74
     0
 49
-1.27
 74
     0
 49
1.27
 74
     0
 49
-1.27
 74
     0
  0
LTYPE
  5
61
330
5
100
AcDbSymbolTableRecord
100
AcDbLinetypeTableRecord
  2
CENTERX2
 70
     0
  3
Center (2x) ________  __  ________  __  _____
 72
    65
 73
     4
 40
20.32
 49
12.7
 74
     0
 49
-2.54
 74
     0
 49
2.54
 74
     0
 49
-2.54
 74
     0
  0
LTYPE
  5
62
330
5
100
AcDbSymbolTableRecord
100
AcDbLinetypeTableRecord
  2
DOT2
 70
     0
  3
Dot (.5x) ........................................
 72
    65
 73
     2
 40
0.635
 49
0.0
 74
     0
 49
-0.635
 74
     0
  0
ENDTAB
  0
TABLE
  2
LAYER
  5
2
330
0
100
AcDbSymbolTable
 70
     6
  0
LAYER
  5
10
330
2
100
AcDbSymbolTableRecord
100
AcDbLayerTableRecord
  2
0
 70
     0
 62
     7
  6
Continuous
370
    -3
390
F
  0
LAYER
  5
63
330
2
100
AcDbSymbolTableRecord
100
AcDbLayerTableRecord
  2
SLD-0
 70
     0
 62
   179
  6
Continuous
370
    -3
390
F
  0
LAYER
  5
64
330
2
100
AcDbSymbolTableRecord
100
AcDbLayerTableRecord
  2
WIRE_BOND
 70
     0
 62
     6
  6
Continuous
370
   100
390
F
  0
LAYER
  5
65
330
2
100
AcDbSymbolTableRecord
100
AcDbLayerTableRecord
  2
HIGHLIGHT-BLUE
 70
     0
 62
     5
  6
Continuous
370
    70
390
F
  0
LAYER
  5
66
330
2
100
AcDbSymbolTableRecord
100
AcDbLayerTableRecord
  2
MANUAL_DIM
 70
     0
 62
   114
  6
Continuous
370
    -3
390
F
  0
LAYER
  5
67
330
2
100
AcDbSymbolTableRecord
100
AcDbLayerTableRecord
  2
TORQUE_9-10
 70
     0
 62
   155
  6
Continuous
370
    -3
390
F
  0
ENDTAB
  0
TABLE
  2
STYLE
  5
3
330
0
100
AcDbSymbolTable
 70
     5
  0
STYLE
  5
11
330
3
100
AcDbSymbolTableRecord
100
AcDbTextStyleTableRecord
  2
STANDARD
 70
     0
 40
0.0
 41
1.0
 50
0.0
 71
     0
 42
6.35
  3
GOTHIC.TTF
  4

1001
ACAD
1000
CENTURY GOTHIC
1071
       34
  0
STYLE
  5
73
330
3
100
AcDbSymbolTableRecord
100
AcDbTextStyleTableRecord
  2
SLDTEXTSTYLE0
 70
     0
 40
0.0
 41
0.913
 50
0.0
 71
     0
 42
6.35
  3
GOTHIC.TTF
  4

1001
ACAD
1000
Century Gothic
1071
      290
  0
STYLE
  5
88
330
3
100
AcDbSymbolTableRecord
100
AcDbTextStyleTableRecord
  2
SLDTEXTSTYLE1
 70
     0
 40
0.0
 41
0.87
 50
0.0
 71
     0
 42
6.35
  3
ARIALN.TTF
  4

1001
ACAD
1000
Arial Narrow
1071
      290
  0
STYLE
  5
93
330
3
100
AcDbSymbolTableRecord
100
AcDbTextStyleTableRecord
  2
SLDTEXTSTYLE2
 70
     0
 40
0.0
 41
0.8969072165
 50
0.0
 71
     0
 42
6.35
  3
ARIALN.TTF
  4

1001
ACAD
1000
Arial Narrow
1071
      290
  0
STYLE
  5
98
330
3
100
AcDbSymbolTableRecord
100
AcDbTextStyleTableRecord
  2
SLDTEXTSTYLE3
 70
     0
 40
0.0
 41
0.8969072165
 50
0.0
 71
     0
 42
6.35
  3
ARIALN.TTF
  4
bigfont
1001
ACAD
1000
Arial Narrow
1071
      290
  0
ENDTAB
  0
TABLE
  2
VIEW
  5
6
330
0
100
AcDbSymbolTable
 70
     0
  0
ENDTAB
  0
TABLE
  2
UCS
  5
7
330
0
100
AcDbSymbolTable
 70
     0
  0
ENDTAB
  0
TABLE
  2
APPID
  5
9
330
0
100
AcDbSymbolTable
 70
     1
  0
APPID
  5
12
330
9
100
AcDbSymbolTableRecord
100
AcDbRegAppTableRecord
  2
ACAD
 70
     0
  0
ENDTAB
  0
TABLE
  2
DIMSTYLE
  5
A
330
0
100
AcDbSymbolTable
 70
     7
100
AcDbDimStyleTable
  0
DIMSTYLE
105
27
330
A
100
AcDbSymbolTableRecord
100
AcDbDimStyleTableRecord
  2
ISO-25
 70
     0
 41
2.5
 42
0.625
 43
3.75
 44
1.25
 73
     0
 74
     0
 77
     1
 78
     8
140
2.5
141
2.5
143
0.0393700787
147
0.625
171
     3
172
     1
178
     0
271
     2
272
     2
274
     3
278
    44
283
     0
284
     8
340
11
  0
DIMSTYLE
105
11C
102
{ACAD_REACTORS
330
11B
330
4BB
102
}
330
A
100
AcDbSymbolTableRecord
100
AcDbDimStyleTableRecord
  2
SLDDIMSTYLE0
 70
     0
 41
4.0
 44
0.0
 45
0.000000001
 78
    12
 79
     3
140
4.7625
147
1.190625
172
     1
173
     1
178
     0
271
     1
272
     2
276
     2
284
    12
289
     0
340
73
  0
DIMSTYLE
105
12A
102
{ACAD_REACTORS
330
129
330
141
330
4C6
330
4D1
330
4FB
330
506
102
}
330
A
100
AcDbSymbolTableRecord
100
AcDbDimStyleTableRecord
  2
SLDDIMSTYLE1
 70
     0
 41
4.0
 44
0.0
 45
0.000000001
 78
     4
 79
     1
140
4.7625
147
1.190625
173
     1
178
     0
271
     1
272
     2
276
     2
284
    12
340
73
  0
DIMSTYLE
105
136
102
{ACAD_REACTORS
330
135
330
180
330
18B
102
}
330
A
100
AcDbSymbolTableRecord
100
AcDbDimStyleTableRecord
  2
SLDDIMSTYLE2
 70
     0
 41
4.0
 44
0.0
 45
0.000000001
 78
    12
 79
     3
140
4.7625
147
1.190625
173
     1
178
     0
271
     1
272
     2
276
     2
284
    12
340
73
  0
DIMSTYLE
105
14D
330
A
100
AcDbSymbolTableRecord
100
AcDbDimStyleTableRecord
  2
SLDDIMSTYLE3
 70
     0
 41
4.0
 44
0.0
 45
0.000000001
146
4.0
147
0.0
173
     1
178
     0
271
     0
272
     0
276
     2
340
11
  0
DIMSTYLE
105
4DD
102
{ACAD_REACTORS
330
4DC
330
4E7
102
}
330
A
100
AcDbSymbolTableRecord
100
AcDbDimStyleTableRecord
  2
SLDDIMSTYLE4
 70
     0
 41
4.0
 44
0.0
 45
0.000000001
 78
     4
 79
     1
140
4.7625
141
0.0
147
1.190625
173
     1
178
     0
271
     2
272
     2
276
     2
284
    12
340
73
  0
DIMSTYLE
105
4F2
102
{ACAD_REACTORS
330
4F1
102
}
330
A
100
AcDbSymbolTableRecord
100
AcDbDimStyleTableRecord
  2
SLDDIMSTYLE5
 70
     0
 41
4.0
 44
0.0
 45
0.000000001
 78
     4
 79
     1
140
4.7625
141
0.0
147
1.190625
173
     1
178
     0
271
     2
272
     2
276
     2
284
    12
340
73
  0
ENDTAB
  0
TABLE
  2
BLOCK_RECORD
  5
1
330
0
100
AcDbSymbolTable
 70
    26
  0
BLOCK_RECORD
  5
1F
330
1
100
AcDbSymbolTableRecord
100
AcDbBlockTableRecord
  2
*Model_Space
340
22
  0
BLOCK_RECORD
  5
1B
330
1
100
AcDbSymbolTableRecord
100
AcDbBlockTableRecord
  2
*Paper_Space
340
1E
  0
BLOCK_RECORD
  5
23
330
1
100
AcDbSymbolTableRecord
100
AcDbBlockTableRecord
  2
*Paper_Space0
340
26
  0
BLOCK_RECORD
  5
11D
330
1
100
AcDbSymbolTableRecord
100
AcDbBlockTableRecord
  2
_D
340
0
  0
BLOCK_RECORD
  5
12B
330
1
100
AcDbSymbolTableRecord
100
AcDbBlockTableRecord
  2
_D_1
340
0
  0
BLOCK_RECORD
  5
137
330
1
100
AcDbSymbolTableRecord
100
AcDbBlockTableRecord
  2
_D_2
340
0
  0
BLOCK_RECORD
  5
142
330
1
100
AcDbSymbolTableRecord
100
AcDbBlockTableRecord
  2
_D_3
340
0
  0
BLOCK_RECORD
  5
181
330
1
100
AcDbSymbolTableRecord
100
AcDbBlockTableRecord
  2
_D_4
340
0
  0
BLOCK_RECORD
  5
18C
330
1
100
AcDbSymbolTableRecord
100
AcDbBlockTableRecord
  2
_D_5
340
0
  0
BLOCK_RECORD
  5
4BC
330
1
100
AcDbSymbolTableRecord
100
AcDbBlockTableRecord
  2
_D_6
340
0
  0
BLOCK_RECORD
  5
4C7
330
1
100
AcDbSymbolTableRecord
100
AcDbBlockTableRecord
  2
_D_7
340
0
  0
BLOCK_RECORD
  5
4D2
330
1
100
AcDbSymbolTableRecord
100
AcDbBlockTableRecord
  2
_D_8
340
0
  0
BLOCK_RECORD
  5
4DE
330
1
100
AcDbSymbolTableRecord
100
AcDbBlockTableRecord
  2
_D_9
340
0
  0
BLOCK_RECORD
  5
4E8
330
1
100
AcDbSymbolTableRecord
100
AcDbBlockTableRecord
  2
_D_10
340
0
  0
BLOCK_RECORD
  5
4F3
330
1
100
AcDbSymbolTableRecord
100
AcDbBlockTableRecord
  2
_D_11
340
0
  0
BLOCK_RECORD
  5
4FC
330
1
100
AcDbSymbolTableRecord
100
AcDbBlockTableRecord
  2
_D_12
340
0
  0
BLOCK_RECORD
  5
507
330
1
100
AcDbSymbolTableRecord
100
AcDbBlockTableRecord
  2
_D_13
340
0
  0
BLOCK_RECORD
  5
511
330
1
100
AcDbSymbolTableRecord
100
AcDbBlockTableRecord
  2
SW_SYMBOL_MOD_CL
340
0
102
{BLKREFS
331
516
331
517
102
}
  0
BLOCK_RECORD
  5
518
330
1
100
AcDbSymbolTableRecord
100
AcDbBlockTableRecord
  2
SW_CENTERMARKSYMBOL_2
340
0
102
{BLKREFS
331
51F
102
}
  0
BLOCK_RECORD
  5
520
330
1
100
AcDbSymbolTableRecord
100
AcDbBlockTableRecord
  2
SW_CENTERMARKSYMBOL_3
340
0
102
{BLKREFS
331
527
102
}
  0
BLOCK_RECORD
  5
528
330
1
100
AcDbSymbolTableRecord
100
AcDbBlockTableRecord
  2
SW_CENTERMARKSYMBOL_4
340
0
102
{BLKREFS
331
52F
102
}
  0
BLOCK_RECORD
  5
530
330
1
100
AcDbSymbolTableRecord
100
AcDbBlockTableRecord
  2
SW_CENTERMARKSYMBOL_5
340
0
102
{BLKREFS
331
537
102
}
  0
BLOCK_RECORD
  5
538
330
1
100
AcDbSymbolTableRecord
100
AcDbBlockTableRecord
  2
SW_CENTERMARKSYMBOL_6
340
0
102
{BLKREFS
331
53F
102
}
  0
BLOCK_RECORD
  5
540
330
1
100
AcDbSymbolTableRecord
100
AcDbBlockTableRecord
  2
SW_CENTERMARKSYMBOL_7
340
0
102
{BLKREFS
331
547
102
}
  0
BLOCK_RECORD
  5
548
330
1
100
AcDbSymbolTableRecord
100
AcDbBlockTableRecord
  2
SW_CENTERMARKSYMBOL_8
340
0
102
{BLKREFS
331
54F
102
}
  0
BLOCK_RECORD
  5
550
330
1
100
AcDbSymbolTableRecord
100
AcDbBlockTableRecord
  2
SW_CENTERMARKSYMBOL_9
340
0
102
{BLKREFS
331
557
102
}
  0
BLOCK_RECORD
  5
558
330
1
100
AcDbSymbolTableRecord
100
AcDbBlockTableRecord
  2
SW_CENTERMARKSYMBOL_10
340
0
102
{BLKREFS
331
55F
102
}
  0
BLOCK_RECORD
  5
560
330
1
100
AcDbSymbolTableRecord
100
AcDbBlockTableRecord
  2
SW_CENTERMARKSYMBOL_11
340
0
102
{BLKREFS
331
567
102
}
  0
ENDTAB
  0
ENDSEC
  0
SECTION
  2
BLOCKS
  0
BLOCK
  5
20
330
1F
100
AcDbEntity
  8
0
100
AcDbBlockBegin
  2
*Model_Space
 70
     0
 10
0.0
 20
0.0
 30
0.0
  3
*Model_Space
  1

  0
ENDBLK
  5
21
330
1F
100
AcDbEntity
  8
0
100
AcDbBlockEnd
  0
BLOCK
  5
1C
330
1B
100
AcDbEntity
 67
     1
  8
0
100
AcDbBlockBegin
  2
*Paper_Space
 70
     0
 10
0.0
 20
0.0
 30
0.0
  3
*Paper_Space
  1

  0
ENDBLK
  5
1D
330
1B
100
AcDbEntity
 67
     1
  8
0
100
AcDbBlockEnd
  0
BLOCK
  5
24
330
23
100
AcDbEntity
  8
0
100
AcDbBlockBegin
  2
*Paper_Space0
 70
     0
 10
0.0
 20
0.0
 30
0.0
  3
*Paper_Space0
  1

  0
ENDBLK
  5
25
330
23
100
AcDbEntity
  8
0
100
AcDbBlockEnd
  0
BLOCK
  5
11E
330
11D
100
AcDbEntity
  8
0
100
AcDbBlockBegin
  2
_D
 70
     0
 10
0.0
 20
0.0
 30
0.0
  3
_D
  1

  0
SOLID
  5
120
330
11D
100
AcDbEntity
  8
SLD-0
100
AcDbTrace
 10
452.755677697
 20
291.0055167764
 30
0.0
 11
452.255677697
 21
287.0055167764
 31
0.0
 12
453.255677697
 22
287.0055167764
 32
0.0
 13
453.255677697
 23
287.0055167764
 33
0.0
  0
SOLID
  5
121
330
11D
100
AcDbEntity
  8
SLD-0
100
AcDbTrace
 10
452.755677697
 20
292.2055167764
 30
0.0
 11
453.255677697
 21
296.2055167764
 31
0.0
 12
452.255677697
 22
296.2055167764
 32
0.0
 13
452.255677697
 23
296.2055167764
 33
0.0
  0
LINE
  5
122
330
11D
100
AcDbEntity
  8
SLD-0
100
AcDbLine
 10
444.972234146
 20
291.0055167764
 30
0.0
 11
454.279677697
 21
291.0055167764
 31
0.0
  0
LINE
  5
123
330
11D
100
AcDbEntity
  8
SLD-0
100
AcDbLine
 10
444.972234146
 20
292.2055167764
 30
0.0
 11
454.279677697
 21
292.2055167764
 31
0.0
  0
LINE
  5
124
330
11D
100
AcDbEntity
  8
SLD-0
100
AcDbLine
 10
456.755677697
 20
303.993972147
 30
0.0
 11
452.755677697
 21
303.993972147
 31
0.0
  0
LINE
  5
125
330
11D
100
AcDbEntity
  8
SLD-0
100
AcDbLine
 10
452.755677697
 20
303.993972147
 30
0.0
 11
452.755677697
 21
292.2055167764
 31
0.0
  0
LINE
  5
126
330
11D
100
AcDbEntity
  8
SLD-0
100
AcDbLine
 10
452.755677697
 20
291.0055167764
 30
0.0
 11
452.755677697
 21
283.0055167764
 31
0.0
  0
MTEXT
  5
127
330
11D
100
AcDbEntity
  8
SLD-0
100
AcDbMText
 10
456.755677697
 20
306.2937802577
 30
0.0
 40
4.7625
 41
0.0
 71
     1
 72
     1
  1
2X 
  7
SLDTEXTSTYLE0
 73
     1
 44
1.0
  0
MTEXT
  5
128
330
11D
100
AcDbEntity
  8
SLD-0
100
AcDbMText
 10
465.8926227063
 20
306.2937802577
 30
0.0
 40
4.7625
 41
0.0
 71
     1
 72
     1
  1
1.2
  7
SLDTEXTSTYLE0
 73
     1
 44
1.0
  0
ENDBLK
  5
11F
330
11D
100
AcDbEntity
  8
0
100
AcDbBlockEnd
  0
BLOCK
  5
12C
330
12B
100
AcDbEntity
  8
0
100
AcDbBlockBegin
  2
_D_1
 70
     0
 10
0.0
 20
0.0
 30
0.0
  3
_D_1
  1

  0
SOLID
  5
12E
330
12B
100
AcDbEntity
  8
SLD-0
100
AcDbTrace
 10
428.448234146
 20
346.9113581011
 30
0.0
 11
424.448234146
 21
347.4113581011
 31
0.0
 12
424.448234146
 22
346.4113581011
 32
0.0
 13
424.448234146
 23
346.4113581011
 33
0.0
  0
SOLID
  5
12F
330
12B
100
AcDbEntity
  8
SLD-0
100
AcDbTrace
 10
319.448234146
 20
346.9113581011
 30
0.0
 11
323.448234146
 21
346.4113581011
 31
0.0
 12
323.448234146
 22
347.4113581011
 32
0.0
 13
323.448234146
 23
347.4113581011
 33
0.0
  0
LINE
  5
130
330
12B
100
AcDbEntity
  8
SLD-0
100
AcDbLine
 10
428.448234146
 20
334.9295167764
 30
0.0
 11
428.448234146
 21
348.4353581011
 31
0.0
  0
LINE
  5
131
330
12B
100
AcDbEntity
  8
SLD-0
100
AcDbLine
 10
319.448234146
 20
334.9295167764
 30
0.0
 11
319.448234146
 21
348.4353581011
 31
0.0
  0
LINE
  5
132
330
12B
100
AcDbEntity
  8
SLD-0
100
AcDbLine
 10
428.448234146
 20
346.9113581011
 30
0.0
 11
380.7167973527
 21
346.9113581011
 31
0.0
  0
LINE
  5
133
330
12B
100
AcDbEntity
  8
SLD-0
100
AcDbLine
 10
319.448234146
 20
346.9113581011
 30
0.0
 11
364.88589497
 21
346.9113581011
 31
0.0
  0
MTEXT
  5
134
330
12B
100
AcDbEntity
  8
SLD-0
100
AcDbMText
 10
364.88589497
 20
349.2111662118
 30
0.0
 40
4.7625
 41
0.0
 71
     1
 72
     1
  1
109.0
  7
SLDTEXTSTYLE0
 73
     1
 44
1.0
  0
ENDBLK
  5
12D
330
12B
100
AcDbEntity
  8
0
100
AcDbBlockEnd
  0
BLOCK
  5
138
330
137
100
AcDbEntity
  8
0
100
AcDbBlockBegin
  2
_D_2
 70
     0
 10
0.0
 20
0.0
 30
0.0
  3
_D_2
  1

  0
SOLID
  5
13A
330
137
100
AcDbEntity
  8
SLD-0
100
AcDbTrace
 10
318.248234146
 20
358.7705257897
 30
0.0
 11
322.248234146
 21
358.2705257897
 31
0.0
 12
322.248234146
 22
359.2705257897
 32
0.0
 13
322.248234146
 23
359.2705257897
 33
0.0
  0
SOLID
  5
13B
330
137
100
AcDbEntity
  8
SLD-0
100
AcDbTrace
 10
429.648234146
 20
358.7705257897
 30
0.0
 11
425.648234146
 21
359.2705257897
 31
0.0
 12
425.648234146
 22
358.2705257897
 32
0.0
 13
425.648234146
 23
358.2705257897
 33
0.0
  0
LINE
  5
13C
330
137
100
AcDbEntity
  8
SLD-0
100
AcDbLine
 10
318.248234146
 20
323.7295167764
 30
0.0
 11
318.248234146
 21
360.2945257897
 31
0.0
  0
LINE
  5
13D
330
137
100
AcDbEntity
  8
SLD-0
100
AcDbLine
 10
429.648234146
 20
323.7295167764
 30
0.0
 11
429.648234146
 21
360.2945257897
 31
0.0
  0
LINE
  5
13E
330
137
100
AcDbEntity
  8
SLD-0
100
AcDbLine
 10
318.248234146
 20
358.7705257897
 30
0.0
 11
364.88589497
 21
358.7705257897
 31
0.0
  0
LINE
  5
13F
330
137
100
AcDbEntity
  8
SLD-0
100
AcDbLine
 10
429.648234146
 20
358.7705257897
 30
0.0
 11
380.7167973527
 21
358.7705257897
 31
0.0
  0
MTEXT
  5
140
330
137
100
AcDbEntity
  8
SLD-0
100
AcDbMText
 10
364.88589497
 20
361.0703339004
 30
0.0
 40
4.7625
 41
0.0
 71
     1
 72
     1
  1
111.4
  7
SLDTEXTSTYLE0
 73
     1
 44
1.0
  0
ENDBLK
  5
139
330
137
100
AcDbEntity
  8
0
100
AcDbBlockEnd
  0
BLOCK
  5
143
330
142
100
AcDbEntity
  8
0
100
AcDbBlockBegin
  2
_D_3
 70
     0
 10
0.0
 20
0.0
 30
0.0
  3
_D_3
  1

  0
SOLID
  5
145
330
142
100
AcDbEntity
  8
SLD-0
100
AcDbTrace
 10
304.448234146
 20
371.4325958594
 30
0.0
 11
308.448234146
 21
370.9325958594
 31
0.0
 12
308.448234146
 22
371.9325958594
 32
0.0
 13
308.448234146
 23
371.9325958594
 33
0.0
  0
SOLID
  5
146
330
142
100
AcDbEntity
  8
SLD-0
100
AcDbTrace
 10
443.448234146
 20
371.4325958594
 30
0.0
 11
439.448234146
 21
371.9325958594
 31
0.0
 12
439.448234146
 22
370.9325958594
 32
0.0
 13
439.448234146
 23
370.9325958594
 33
0.0
  0
LINE
  5
147
330
142
100
AcDbEntity
  8
SLD-0
100
AcDbLine
 10
304.448234146
 20
293.7295167764
 30
0.0
 11
304.448234146
 21
372.9565958594
 31
0.0
  0
LINE
  5
148
330
142
100
AcDbEntity
  8
SLD-0
100
AcDbLine
 10
443.448234146
 20
293.7295167764
 30
0.0
 11
443.448234146
 21
372.9565958594
 31
0.0
  0
LINE
  5
149
330
142
100
AcDbEntity
  8
SLD-0
100
AcDbLine
 10
304.448234146
 20
371.4325958594
 30
0.0
 11
364.88589497
 21
371.4325958594
 31
0.0
  0
LINE
  5
14A
330
142
100
AcDbEntity
  8
SLD-0
100
AcDbLine
 10
443.448234146
 20
371.4325958594
 30
0.0
 11
380.7167973527
 21
371.4325958594
 31
0.0
  0
MTEXT
  5
14B
330
142
100
AcDbEntity
  8
SLD-0
100
AcDbMText
 10
364.88589497
 20
373.73240397
 30
0.0
 40
4.7625
 41
0.0
 71
     1
 72
     1
  1
139.0
  7
SLDTEXTSTYLE0
 73
     1
 44
1.0
  0
ENDBLK
  5
144
330
142
100
AcDbEntity
  8
0
100
AcDbBlockEnd
  0
BLOCK
  5
182
330
181
100
AcDbEntity
  8
0
100
AcDbBlockBegin
  2
_D_4
 70
     0
 10
0.0
 20
0.0
 30
0.0
  3
_D_4
  1

  0
SOLID
  5
184
330
181
100
AcDbEntity
  8
SLD-0
100
AcDbTrace
 10
262.8897089229
 20
291.0055167764
 30
0.0
 11
263.3897089229
 21
295.0055167764
 31
0.0
 12
262.3897089229
 22
295.0055167764
 32
0.0
 13
262.3897089229
 23
295.0055167764
 33
0.0
  0
SOLID
  5
185
330
181
100
AcDbEntity
  8
SLD-0
100
AcDbTrace
 10
262.8897089229
 20
322.2055167764
 30
0.0
 11
262.3897089229
 21
318.2055167764
 31
0.0
 12
263.3897089229
 22
318.2055167764
 32
0.0
 13
263.3897089229
 23
318.2055167764
 33
0.0
  0
LINE
  5
186
330
181
100
AcDbEntity
  8
SLD-0
100
AcDbLine
 10
248.1605339244
 20
291.0055167764
 30
0.0
 11
264.4137089229
 21
291.0055167764
 31
0.0
  0
LINE
  5
187
330
181
100
AcDbEntity
  8
SLD-0
100
AcDbLine
 10
154.4115440512
 20
322.2055167764
 30
0.0
 11
264.4137089229
 21
322.2055167764
 31
0.0
  0
LINE
  5
188
330
181
100
AcDbEntity
  8
SLD-0
100
AcDbLine
 10
262.8897089229
 20
291.0055167764
 30
0.0
 11
262.8897089229
 21
301.934514676
 31
0.0
  0
LINE
  5
189
330
181
100
AcDbEntity
  8
SLD-0
100
AcDbLine
 10
262.8897089229
 20
322.2055167764
 30
0.0
 11
262.8897089229
 21
309.501598139
 31
0.0
  0
MTEXT
  5
18A
330
181
100
AcDbEntity
  8
SLD-0
100
AcDbMText
 10
256.7337365539
 20
308.0178645182
 30
0.0
 40
4.7625
 41
0.0
 71
     1
 72
     1
  1
31.2
  7
SLDTEXTSTYLE0
 73
     1
 44
1.0
  0
ENDBLK
  5
183
330
181
100
AcDbEntity
  8
0
100
AcDbBlockEnd
  0
BLOCK
  5
18D
330
18C
100
AcDbEntity
  8
0
100
AcDbBlockBegin
  2
_D_5
 70
     0
 10
0.0
 20
0.0
 30
0.0
  3
_D_5
  1

  0
SOLID
  5
18F
330
18C
100
AcDbEntity
  8
SLD-0
100
AcDbTrace
 10
282.173273636
 20
291.0055167764
 30
0.0
 11
282.673273636
 21
295.0055167764
 31
0.0
 12
281.673273636
 22
295.0055167764
 32
0.0
 13
281.673273636
 23
295.0055167764
 33
0.0
  0
SOLID
  5
190
330
18C
100
AcDbEntity
  8
SLD-0
100
AcDbTrace
 10
282.173273636
 20
333.4055167764
 30
0.0
 11
281.673273636
 21
329.4055167764
 31
0.0
 12
282.673273636
 22
329.4055167764
 32
0.0
 13
282.673273636
 23
329.4055167764
 33
0.0
  0
LINE
  5
191
330
18C
100
AcDbEntity
  8
SLD-0
100
AcDbLine
 10
248.1605339244
 20
291.0055167764
 30
0.0
 11
283.697273636
 21
291.0055167764
 31
0.0
  0
LINE
  5
192
330
18C
100
AcDbEntity
  8
SLD-0
100
AcDbLine
 10
248.1605339244
 20
333.4055167764
 30
0.0
 11
283.697273636
 21
333.4055167764
 31
0.0
  0
LINE
  5
193
330
18C
100
AcDbEntity
  8
SLD-0
100
AcDbLine
 10
282.173273636
 20
291.0055167764
 30
0.0
 11
282.173273636
 21
306.4268383672
 31
0.0
  0
LINE
  5
194
330
18C
100
AcDbEntity
  8
SLD-0
100
AcDbLine
 10
282.173273636
 20
333.4055167764
 30
0.0
 11
282.173273636
 21
313.9939218303
 31
0.0
  0
MTEXT
  5
195
330
18C
100
AcDbEntity
  8
SLD-0
100
AcDbMText
 10
276.017301267
 20
312.5101882094
 30
0.0
 40
4.7625
 41
0.0
 71
     1
 72
     1
  1
42.4
  7
SLDTEXTSTYLE0
 73
     1
 44
1.0
  0
ENDBLK
  5
18E
330
18C
100
AcDbEntity
  8
0
100
AcDbBlockEnd
  0
BLOCK
  5
4BD
330
4BC
100
AcDbEntity
  8
0
100
AcDbBlockBegin
  2
_D_6
 70
     0
 10
0.0
 20
0.0
 30
0.0
  3
_D_6
  1

  0
SOLID
  5
4BF
330
4BC
100
AcDbEntity
  8
SLD-0
100
AcDbTrace
 10
130.9365339244
 20
80.5986004005
 30
0.0
 11
126.9365339244
 21
81.0986004005
 31
0.0
 12
126.9365339244
 22
80.0986004005
 32
0.0
 13
126.9365339244
 23
80.0986004005
 33
0.0
  0
SOLID
  5
4C0
330
4BC
100
AcDbEntity
  8
SLD-0
100
AcDbTrace
 10
146.4365339244
 20
80.5986004005
 30
0.0
 11
150.4365339244
 21
80.0986004005
 31
0.0
 12
150.4365339244
 22
81.0986004005
 32
0.0
 13
150.4365339244
 23
81.0986004005
 33
0.0
  0
LINE
  5
4C1
330
4BC
100
AcDbEntity
  8
SLD-0
100
AcDbLine
 10
130.9365339244
 20
97.4004224371
 30
0.0
 11
130.9365339244
 21
79.0746004005
 31
0.0
  0
LINE
  5
4C2
330
4BC
100
AcDbEntity
  8
SLD-0
100
AcDbLine
 10
146.4365339244
 20
97.4004224371
 30
0.0
 11
146.4365339244
 21
79.0746004005
 31
0.0
  0
LINE
  5
4C3
330
4BC
100
AcDbEntity
  8
SLD-0
100
AcDbLine
 10
130.9365339244
 20
80.5986004005
 30
0.0
 11
122.9365339244
 21
80.5986004005
 31
0.0
  0
LINE
  5
4C4
330
4BC
100
AcDbEntity
  8
SLD-0
100
AcDbLine
 10
146.4365339244
 20
80.5986004005
 30
0.0
 11
154.4365339244
 21
80.5986004005
 31
0.0
  0
MTEXT
  5
4C5
330
4BC
100
AcDbEntity
  8
SLD-0
100
AcDbMText
 10
131.8885883378
 20
82.8984085112
 30
0.0
 40
4.7625
 41
0.0
 71
     1
 72
     1
  1
15.5
  7
SLDTEXTSTYLE0
 73
     1
 44
1.0
  0
ENDBLK
  5
4BE
330
4BC
100
AcDbEntity
  8
0
100
AcDbBlockEnd
  0
BLOCK
  5
4C8
330
4C7
100
AcDbEntity
  8
0
100
AcDbBlockBegin
  2
_D_7
 70
     0
 10
0.0
 20
0.0
 30
0.0
  3
_D_7
  1

  0
SOLID
  5
4CA
330
4C7
100
AcDbEntity
  8
SLD-0
100
AcDbTrace
 10
120.6865339244
 20
69.0993343883
 30
0.0
 11
124.6865339244
 21
68.5993343883
 31
0.0
 12
124.6865339244
 22
69.5993343883
 32
0.0
 13
124.6865339244
 23
69.5993343883
 33
0.0
  0
SOLID
  5
4CB
330
4C7
100
AcDbEntity
  8
SLD-0
100
AcDbTrace
 10
156.6865339244
 20
69.0993343883
 30
0.0
 11
152.6865339244
 21
69.5993343883
 31
0.0
 12
152.6865339244
 22
68.5993343883
 32
0.0
 13
152.6865339244
 23
68.5993343883
 33
0.0
  0
LINE
  5
4CC
330
4C7
100
AcDbEntity
  8
SLD-0
100
AcDbLine
 10
120.6865339244
 20
97.4004224371
 30
0.0
 11
120.6865339244
 21
67.5753343883
 31
0.0
  0
LINE
  5
4CD
330
4C7
100
AcDbEntity
  8
SLD-0
100
AcDbLine
 10
156.6865339244
 20
97.4004224371
 30
0.0
 11
156.6865339244
 21
67.5753343883
 31
0.0
  0
LINE
  5
4CE
330
4C7
100
AcDbEntity
  8
SLD-0
100
AcDbLine
 10
120.6865339244
 20
69.0993343883
 30
0.0
 11
134.878397501
 21
69.0993343883
 31
0.0
  0
LINE
  5
4CF
330
4C7
100
AcDbEntity
  8
SLD-0
100
AcDbLine
 10
156.6865339244
 20
69.0993343883
 30
0.0
 11
147.190342239
 21
69.0993343883
 31
0.0
  0
MTEXT
  5
4D0
330
4C7
100
AcDbEntity
  8
SLD-0
100
AcDbMText
 10
134.878397501
 20
71.399142499
 30
0.0
 40
4.7625
 41
0.0
 71
     1
 72
     1
  1
36.0
  7
SLDTEXTSTYLE0
 73
     1
 44
1.0
  0
ENDBLK
  5
4C9
330
4C7
100
AcDbEntity
  8
0
100
AcDbBlockEnd
  0
BLOCK
  5
4D3
330
4D2
100
AcDbEntity
  8
0
100
AcDbBlockBegin
  2
_D_8
 70
     0
 10
0.0
 20
0.0
 30
0.0
  3
_D_8
  1

  0
SOLID
  5
4D5
330
4D2
100
AcDbEntity
  8
SLD-0
100
AcDbTrace
 10
113.6865339244
 20
57.6000683761
 30
0.0
 11
117.6865339244
 21
57.1000683761
 31
0.0
 12
117.6865339244
 22
58.1000683761
 32
0.0
 13
117.6865339244
 23
58.1000683761
 33
0.0
  0
SOLID
  5
4D6
330
4D2
100
AcDbEntity
  8
SLD-0
100
AcDbTrace
 10
163.6865339244
 20
57.6000683761
 30
0.0
 11
159.6865339244
 21
58.1000683761
 31
0.0
 12
159.6865339244
 22
57.1000683761
 32
0.0
 13
159.6865339244
 23
57.1000683761
 33
0.0
  0
LINE
  5
4D7
330
4D2
100
AcDbEntity
  8
SLD-0
100
AcDbLine
 10
113.6865339244
 20
92.4004224371
 30
0.0
 11
113.6865339244
 21
56.0760683761
 31
0.0
  0
LINE
  5
4D8
330
4D2
100
AcDbEntity
  8
SLD-0
100
AcDbLine
 10
163.6865339244
 20
92.4004224371
 30
0.0
 11
163.6865339244
 21
56.0760683761
 31
0.0
  0
LINE
  5
4D9
330
4D2
100
AcDbEntity
  8
SLD-0
100
AcDbLine
 10
113.6865339244
 20
57.6000683761
 30
0.0
 11
134.878397501
 21
57.6000683761
 31
0.0
  0
LINE
  5
4DA
330
4D2
100
AcDbEntity
  8
SLD-0
100
AcDbLine
 10
163.6865339244
 20
57.6000683761
 30
0.0
 11
147.190342239
 21
57.6000683761
 31
0.0
  0
MTEXT
  5
4DB
330
4D2
100
AcDbEntity
  8
SLD-0
100
AcDbMText
 10
134.878397501
 20
59.8998764868
 30
0.0
 40
4.7625
 41
0.0
 71
     1
 72
     1
  1
50.0
  7
SLDTEXTSTYLE0
 73
     1
 44
1.0
  0
ENDBLK
  5
4D4
330
4D2
100
AcDbEntity
  8
0
100
AcDbBlockEnd
  0
BLOCK
  5
4DF
330
4DE
100
AcDbEntity
  8
0
100
AcDbBlockBegin
  2
_D_9
 70
     0
 10
0.0
 20
0.0
 30
0.0
  3
_D_9
  1

  0
SOLID
  5
4E1
330
4DE
100
AcDbEntity
  8
SLD-0
100
AcDbTrace
 10
119.1484731718
 20
228.2040866934
 30
0.0
 11
117.3257783056
 21
231.7996093848
 31
0.0
 12
116.4968094851
 22
231.2403145657
 32
0.0
 13
116.4968094851
 23
231.2403145657
 33
0.0
  0
LINE
  5
4E2
330
4DE
100
AcDbEntity
  8
SLD-0
100
AcDbLine
 10
119.1484731718
 20
228.2040866934
 30
0.0
 11
108.5213684123
 21
243.9552401036
 31
0.0
  0
LINE
  5
4E3
330
4DE
100
AcDbEntity
  8
SLD-0
100
AcDbLine
 10
108.5213684123
 20
243.9552401036
 30
0.0
 11
104.5213684123
 21
243.9552401036
 31
0.0
  0
MTEXT
  5
4E4
330
4DE
100
AcDbEntity
  8
SLD-0
100
AcDbMText
 10
75.8837505858
 20
246.2550482143
 30
0.0
 40
4.7625
 41
0.0
 71
     1
 72
     1
  1
2X 
  7
SLDTEXTSTYLE0
 73
     1
 44
1.0
  0
MTEXT
  5
4E5
330
4DE
100
AcDbEntity
  8
SLD-0
100
AcDbMText
 10
85.020695595
 20
246.2550482143
 30
0.0
 40
4.7625
 41
0.0
 71
     1
 72
     1
  1
%%c
  7
SLDTEXTSTYLE0
 73
     1
 44
1.0
  0
MTEXT
  5
4E6
330
4DE
100
AcDbEntity
  8
SLD-0
100
AcDbMText
 10
92.2094236742
 20
246.2550482143
 30
0.0
 40
4.7625
 41
0.0
 71
     1
 72
     1
  1
5.50
  7
SLDTEXTSTYLE0
 73
     1
 44
1.0
  0
ENDBLK
  5
4E0
330
4DE
100
AcDbEntity
  8
0
100
AcDbBlockEnd
  0
BLOCK
  5
4E9
330
4E8
100
AcDbEntity
  8
0
100
AcDbBlockBegin
  2
_D_10
 70
     0
 10
0.0
 20
0.0
 30
0.0
  3
_D_10
  1

  0
SOLID
  5
4EB
330
4E8
100
AcDbEntity
  8
SLD-0
100
AcDbTrace
 10
129.7224215619
 20
227.8187379259
 30
0.0
 11
127.9849585816
 21
231.4562126533
 31
0.0
 12
127.1430405866
 22
230.9166071588
 32
0.0
 13
127.1430405866
 23
230.9166071588
 33
0.0
  0
LINE
  5
4EC
330
4E8
100
AcDbEntity
  8
SLD-0
100
AcDbLine
 10
129.7224215619
 20
227.8187379259
 30
0.0
 11
113.2426786242
 21
253.5312117159
 31
0.0
  0
LINE
  5
4ED
330
4E8
100
AcDbEntity
  8
SLD-0
100
AcDbLine
 10
113.2426786242
 20
253.5312117159
 30
0.0
 11
109.2426786242
 21
253.5312117159
 31
0.0
  0
MTEXT
  5
4EE
330
4E8
100
AcDbEntity
  8
SLD-0
100
AcDbMText
 10
80.6050607977
 20
255.8310198266
 30
0.0
 40
4.7625
 41
0.0
 71
     1
 72
     1
  1
2X 
  7
SLDTEXTSTYLE0
 73
     1
 44
1.0
  0
MTEXT
  5
4EF
330
4E8
100
AcDbEntity
  8
SLD-0
100
AcDbMText
 10
89.7420058069
 20
255.8310198266
 30
0.0
 40
4.7625
 41
0.0
 71
     1
 72
     1
  1
%%c
  7
SLDTEXTSTYLE0
 73
     1
 44
1.0
  0
MTEXT
  5
4F0
330
4E8
100
AcDbEntity
  8
SLD-0
100
AcDbMText
 10
96.9307338861
 20
255.8310198266
 30
0.0
 40
4.7625
 41
0.0
 71
     1
 72
     1
  1
4.50
  7
SLDTEXTSTYLE0
 73
     1
 44
1.0
  0
ENDBLK
  5
4EA
330
4E8
100
AcDbEntity
  8
0
100
AcDbBlockEnd
  0
BLOCK
  5
4F4
330
4F3
100
AcDbEntity
  8
0
100
AcDbBlockBegin
  2
_D_11
 70
     0
 10
0.0
 20
0.0
 30
0.0
  3
_D_11
  1

  0
SOLID
  5
4F6
330
4F3
100
AcDbEntity
  8
SLD-0
100
AcDbTrace
 10
136.4404663791
 20
229.5324247351
 30
0.0
 11
134.7509913128
 21
233.1924348443
 31
0.0
 12
133.9020495956
 22
232.6639483631
 32
0.0
 13
133.9020495956
 23
232.6639483631
 33
0.0
  0
LINE
  5
4F7
330
4F3
100
AcDbEntity
  8
SLD-0
100
AcDbLine
 10
136.4404663791
 20
229.5324247351
 30
0.0
 11
114.5004521444
 21
264.7760762199
 31
0.0
  0
LINE
  5
4F8
330
4F3
100
AcDbEntity
  8
SLD-0
100
AcDbLine
 10
114.5004521444
 20
264.7760762199
 30
0.0
 11
110.5004521444
 21
264.7760762199
 31
0.0
  0
MTEXT
  5
4F9
330
4F3
100
AcDbEntity
  8
SLD-0
100
AcDbMText
 10
90.9997793272
 20
267.0758843306
 30
0.0
 40
4.7625
 41
0.0
 71
     1
 72
     1
  1
%%c
  7
SLDTEXTSTYLE0
 73
     1
 44
1.0
  0
MTEXT
  5
4FA
330
4F3
100
AcDbEntity
  8
SLD-0
100
AcDbMText
 10
98.1885083377
 20
267.0758843306
 30
0.0
 40
4.7625
 41
0.0
 71
     1
 72
     1
  1
8.50
  7
SLDTEXTSTYLE0
 73
     1
 44
1.0
  0
ENDBLK
  5
4F5
330
4F3
100
AcDbEntity
  8
0
100
AcDbBlockEnd
  0
BLOCK
  5
4FD
330
4FC
100
AcDbEntity
  8
0
100
AcDbBlockBegin
  2
_D_12
 70
     0
 10
0.0
 20
0.0
 30
0.0
  3
_D_12
  1

  0
SOLID
  5
4FF
330
4FC
100
AcDbEntity
  8
SLD-0
100
AcDbTrace
 10
246.6365339244
 20
252.9244224371
 30
0.0
 11
242.6365339244
 21
253.4244224371
 31
0.0
 12
242.6365339244
 22
252.4244224371
 32
0.0
 13
242.6365339244
 23
252.4244224371
 33
0.0
  0
SOLID
  5
500
330
4FC
100
AcDbEntity
  8
SLD-0
100
AcDbTrace
 10
138.6865339244
 20
252.9244224371
 30
0.0
 11
142.6865339244
 21
252.4244224371
 31
0.0
 12
142.6865339244
 22
253.4244224371
 32
0.0
 13
142.6865339244
 23
253.4244224371
 33
0.0
  0
LINE
  5
501
330
4FC
100
AcDbEntity
  8
SLD-0
100
AcDbLine
 10
246.6365339244
 20
219.4484224371
 30
0.0
 11
246.6365339244
 21
254.4484224371
 31
0.0
  0
LINE
  5
502
330
4FC
100
AcDbEntity
  8
SLD-0
100
AcDbLine
 10
138.6865339244
 20
229.4484224371
 30
0.0
 11
138.6865339244
 21
254.4484224371
 31
0.0
  0
LINE
  5
503
330
4FC
100
AcDbEntity
  8
SLD-0
100
AcDbLine
 10
246.6365339244
 20
252.9244224371
 30
0.0
 11
197.2712961669
 21
252.9244224371
 31
0.0
  0
LINE
  5
504
330
4FC
100
AcDbEntity
  8
SLD-0
100
AcDbLine
 10
138.6865339244
 20
252.9244224371
 30
0.0
 11
181.4403937841
 21
252.9244224371
 31
0.0
  0
MTEXT
  5
505
330
4FC
100
AcDbEntity
  8
SLD-0
100
AcDbMText
 10
181.4403937841
 20
255.2242305478
 30
0.0
 40
4.7625
 41
0.0
 71
     1
 72
     1
  1
108.0
  7
SLDTEXTSTYLE0
 73
     1
 44
1.0
  0
ENDBLK
  5
4FE
330
4FC
100
AcDbEntity
  8
0
100
AcDbBlockEnd
  0
BLOCK
  5
508
330
507
100
AcDbEntity
  8
0
100
AcDbBlockBegin
  2
_D_13
 70
     0
 10
0.0
 20
0.0
 30
0.0
  3
_D_13
  1

  0
SOLID
  5
50A
330
507
100
AcDbEntity
  8
SLD-0
100
AcDbTrace
 10
266.6365339244
 20
100.9244224371
 30
0.0
 11
267.1365339244
 21
104.9244224371
 31
0.0
 12
266.1365339244
 22
104.9244224371
 32
0.0
 13
266.1365339244
 23
104.9244224371
 33
0.0
  0
SOLID
  5
50B
330
507
100
AcDbEntity
  8
SLD-0
100
AcDbTrace
 10
266.6365339244
 20
225.9244224371
 30
0.0
 11
266.1365339244
 21
221.9244224371
 31
0.0
 12
267.1365339244
 22
221.9244224371
 32
0.0
 13
267.1365339244
 23
221.9244224371
 33
0.0
  0
LINE
  5
50C
330
507
100
AcDbEntity
  8
SLD-0
100
AcDbLine
 10
160.2105339244
 20
100.9244224371
 30
0.0
 11
268.1605339244
 21
100.9244224371
 31
0.0
  0
LINE
  5
50D
330
507
100
AcDbEntity
  8
SLD-0
100
AcDbLine
 10
160.2105339244
 20
225.9244224371
 30
0.0
 11
268.1605339244
 21
225.9244224371
 31
0.0
  0
LINE
  5
50E
330
507
100
AcDbEntity
  8
SLD-0
100
AcDbLine
 10
266.6365339244
 20
100.9244224371
 30
0.0
 11
266.6365339244
 21
160.6466879023
 31
0.0
  0
LINE
  5
50F
330
507
100
AcDbEntity
  8
SLD-0
100
AcDbLine
 10
266.6365339244
 20
225.9244224371
 30
0.0
 11
266.6365339244
 21
168.2137713654
 31
0.0
  0
MTEXT
  5
510
330
507
100
AcDbEntity
  8
SLD-0
100
AcDbMText
 10
258.721082733
 20
166.7300377445
 30
0.0
 40
4.7625
 41
0.0
 71
     1
 72
     1
  1
125.0
  7
SLDTEXTSTYLE0
 73
     1
 44
1.0
  0
ENDBLK
  5
509
330
507
100
AcDbEntity
  8
0
100
AcDbBlockEnd
  0
BLOCK
  5
512
330
511
100
AcDbEntity
  8
0
100
AcDbBlockBegin
  2
SW_SYMBOL_MOD_CL
 70
     0
 10
0.0
 20
0.0
 30
0.0
  3
SW_SYMBOL_MOD_CL
  1

  0
MTEXT
  5
514
330
511
100
AcDbEntity
  8
SLD-0
 62
     0
100
AcDbMText
 10
800.0
 20
1200.0
 30
0.0
 40
1565.749235474
 41
0.0
 71
     5
 72
     1
  1
C
  7
SLDTEXTSTYLE0
 73
     1
 44
1.0
  0
MTEXT
  5
515
330
511
100
AcDbEntity
  8
SLD-0
 62
     0
100
AcDbMText
 10
1200.0
 20
600.0
 30
0.0
 40
1565.749235474
 41
0.0
 71
     5
 72
     1
  1
L
  7
SLDTEXTSTYLE0
 73
     1
 44
1.0
  0
ENDBLK
  5
513
330
511
100
AcDbEntity
  8
0
100
AcDbBlockEnd
  0
BLOCK
  5
519
330
518
100
AcDbEntity
  8
0
100
AcDbBlockBegin
  2
SW_CENTERMARKSYMBOL_2
 70
     0
 10
0.0
 20
0.0
 30
0.0
  3
SW_CENTERMARKSYMBOL_2
  1

  0
LINE
  5
51B
330
518
100
AcDbEntity
  8
SLD-0
 62
     0
100
AcDbLine
 10
0.0
 20
0.0
 30
0.0
 11
0.0
 21
2.0
 31
0.0
  0
LINE
  5
51C
330
518
100
AcDbEntity
  8
SLD-0
 62
     0
100
AcDbLine
 10
0.0
 20
0.0
 30
0.0
 11
-2.0
 21
0.0
 31
0.0
  0
LINE
  5
51D
330
518
100
AcDbEntity
  8
SLD-0
 62
     0
100
AcDbLine
 10
0.0
 20
0.0
 30
0.0
 11
0.0
 21
-2.0
 31
0.0
  0
LINE
  5
51E
330
518
100
AcDbEntity
  8
SLD-0
 62
     0
100
AcDbLine
 10
0.0
 20
0.0
 30
0.0
 11
2.0
 21
0.0
 31
0.0
  0
ENDBLK
  5
51A
330
518
100
AcDbEntity
  8
0
100
AcDbBlockEnd
  0
BLOCK
  5
521
330
520
100
AcDbEntity
  8
0
100
AcDbBlockBegin
  2
SW_CENTERMARKSYMBOL_3
 70
     0
 10
0.0
 20
0.0
 30
0.0
  3
SW_CENTERMARKSYMBOL_3
  1

  0
LINE
  5
523
330
520
100
AcDbEntity
  8
SLD-0
 62
     0
100
AcDbLine
 10
0.0
 20
0.0
 30
0.0
 11
0.0
 21
2.0
 31
0.0
  0
LINE
  5
524
330
520
100
AcDbEntity
  8
SLD-0
 62
     0
100
AcDbLine
 10
0.0
 20
0.0
 30
0.0
 11
-2.0
 21
0.0
 31
0.0
  0
LINE
  5
525
330
520
100
AcDbEntity
  8
SLD-0
 62
     0
100
AcDbLine
 10
0.0
 20
0.0
 30
0.0
 11
0.0
 21
-2.0
 31
0.0
  0
LINE
  5
526
330
520
100
AcDbEntity
  8
SLD-0
 62
     0
100
AcDbLine
 10
0.0
 20
0.0
 30
0.0
 11
2.0
 21
0.0
 31
0.0
  0
ENDBLK
  5
522
330
520
100
AcDbEntity
  8
0
100
AcDbBlockEnd
  0
BLOCK
  5
529
330
528
100
AcDbEntity
  8
0
100
AcDbBlockBegin
  2
SW_CENTERMARKSYMBOL_4
 70
     0
 10
0.0
 20
0.0
 30
0.0
  3
SW_CENTERMARKSYMBOL_4
  1

  0
LINE
  5
52B
330
528
100
AcDbEntity
  8
SLD-0
 62
     0
100
AcDbLine
 10
0.0
 20
0.0
 30
0.0
 11
0.0
 21
2.0
 31
0.0
  0
LINE
  5
52C
330
528
100
AcDbEntity
  8
SLD-0
 62
     0
100
AcDbLine
 10
0.0
 20
0.0
 30
0.0
 11
-2.0
 21
0.0
 31
0.0
  0
LINE
  5
52D
330
528
100
AcDbEntity
  8
SLD-0
 62
     0
100
AcDbLine
 10
0.0
 20
0.0
 30
0.0
 11
0.0
 21
-2.0
 31
0.0
  0
LINE
  5
52E
330
528
100
AcDbEntity
  8
SLD-0
 62
     0
100
AcDbLine
 10
0.0
 20
0.0
 30
0.0
 11
2.0
 21
0.0
 31
0.0
  0
ENDBLK
  5
52A
330
528
100
AcDbEntity
  8
0
100
AcDbBlockEnd
  0
BLOCK
  5
531
330
530
100
AcDbEntity
  8
0
100
AcDbBlockBegin
  2
SW_CENTERMARKSYMBOL_5
 70
     0
 10
0.0
 20
0.0
 30
0.0
  3
SW_CENTERMARKSYMBOL_5
  1

  0
LINE
  5
533
330
530
100
AcDbEntity
  8
SLD-0
 62
     0
100
AcDbLine
 10
0.0
 20
0.0
 30
0.0
 11
0.0
 21
2.0
 31
0.0
  0
LINE
  5
534
330
530
100
AcDbEntity
  8
SLD-0
 62
     0
100
AcDbLine
 10
0.0
 20
0.0
 30
0.0
 11
-2.0
 21
0.0
 31
0.0
  0
LINE
  5
535
330
530
100
AcDbEntity
  8
SLD-0
 62
     0
100
AcDbLine
 10
0.0
 20
0.0
 30
0.0
 11
0.0
 21
-2.0
 31
0.0
  0
LINE
  5
536
330
530
100
AcDbEntity
  8
SLD-0
 62
     0
100
AcDbLine
 10
0.0
 20
0.0
 30
0.0
 11
2.0
 21
0.0
 31
0.0
  0
ENDBLK
  5
532
330
530
100
AcDbEntity
  8
0
100
AcDbBlockEnd
  0
BLOCK
  5
539
330
538
100
AcDbEntity
  8
0
100
AcDbBlockBegin
  2
SW_CENTERMARKSYMBOL_6
 70
     0
 10
0.0
 20
0.0
 30
0.0
  3
SW_CENTERMARKSYMBOL_6
  1

  0
LINE
  5
53B
330
538
100
AcDbEntity
  8
SLD-0
 62
     0
100
AcDbLine
 10
0.0
 20
0.0
 30
0.0
 11
0.0
 21
2.0
 31
0.0
  0
LINE
  5
53C
330
538
100
AcDbEntity
  8
SLD-0
 62
     0
100
AcDbLine
 10
0.0
 20
0.0
 30
0.0
 11
-2.0
 21
0.0
 31
0.0
  0
LINE
  5
53D
330
538
100
AcDbEntity
  8
SLD-0
 62
     0
100
AcDbLine
 10
0.0
 20
0.0
 30
0.0
 11
0.0
 21
-2.0
 31
0.0
  0
LINE
  5
53E
330
538
100
AcDbEntity
  8
SLD-0
 62
     0
100
AcDbLine
 10
0.0
 20
0.0
 30
0.0
 11
2.0
 21
0.0
 31
0.0
  0
ENDBLK
  5
53A
330
538
100
AcDbEntity
  8
0
100
AcDbBlockEnd
  0
BLOCK
  5
541
330
540
100
AcDbEntity
  8
0
100
AcDbBlockBegin
  2
SW_CENTERMARKSYMBOL_7
 70
     0
 10
0.0
 20
0.0
 30
0.0
  3
SW_CENTERMARKSYMBOL_7
  1

  0
LINE
  5
543
330
540
100
AcDbEntity
  8
SLD-0
 62
     0
100
AcDbLine
 10
0.0
 20
0.0
 30
0.0
 11
0.0
 21
2.0
 31
0.0
  0
LINE
  5
544
330
540
100
AcDbEntity
  8
SLD-0
 62
     0
100
AcDbLine
 10
0.0
 20
0.0
 30
0.0
 11
-2.0
 21
0.0
 31
0.0
  0
LINE
  5
545
330
540
100
AcDbEntity
  8
SLD-0
 62
     0
100
AcDbLine
 10
0.0
 20
0.0
 30
0.0
 11
0.0
 21
-2.0
 31
0.0
  0
LINE
  5
546
330
540
100
AcDbEntity
  8
SLD-0
 62
     0
100
AcDbLine
 10
0.0
 20
0.0
 30
0.0
 11
2.0
 21
0.0
 31
0.0
  0
ENDBLK
  5
542
330
540
100
AcDbEntity
  8
0
100
AcDbBlockEnd
  0
BLOCK
  5
549
330
548
100
AcDbEntity
  8
0
100
AcDbBlockBegin
  2
SW_CENTERMARKSYMBOL_8
 70
     0
 10
0.0
 20
0.0
 30
0.0
  3
SW_CENTERMARKSYMBOL_8
  1

  0
LINE
  5
54B
330
548
100
AcDbEntity
  8
SLD-0
 62
     0
100
AcDbLine
 10
0.0
 20
0.0
 30
0.0
 11
0.0
 21
2.0
 31
0.0
  0
LINE
  5
54C
330
548
100
AcDbEntity
  8
SLD-0
 62
     0
100
AcDbLine
 10
0.0
 20
0.0
 30
0.0
 11
-2.0
 21
0.0
 31
0.0
  0
LINE
  5
54D
330
548
100
AcDbEntity
  8
SLD-0
 62
     0
100
AcDbLine
 10
0.0
 20
0.0
 30
0.0
 11
0.0
 21
-2.0
 31
0.0
  0
LINE
  5
54E
330
548
100
AcDbEntity
  8
SLD-0
 62
     0
100
AcDbLine
 10
0.0
 20
0.0
 30
0.0
 11
2.0
 21
0.0
 31
0.0
  0
ENDBLK
  5
54A
330
548
100
AcDbEntity
  8
0
100
AcDbBlockEnd
  0
BLOCK
  5
551
330
550
100
AcDbEntity
  8
0
100
AcDbBlockBegin
  2
SW_CENTERMARKSYMBOL_9
 70
     0
 10
0.0
 20
0.0
 30
0.0
  3
SW_CENTERMARKSYMBOL_9
  1

  0
LINE
  5
553
330
550
100
AcDbEntity
  8
SLD-0
 62
     0
100
AcDbLine
 10
0.0
 20
0.0
 30
0.0
 11
0.0
 21
2.0
 31
0.0
  0
LINE
  5
554
330
550
100
AcDbEntity
  8
SLD-0
 62
     0
100
AcDbLine
 10
0.0
 20
0.0
 30
0.0
 11
-2.0
 21
0.0
 31
0.0
  0
LINE
  5
555
330
550
100
AcDbEntity
  8
SLD-0
 62
     0
100
AcDbLine
 10
0.0
 20
0.0
 30
0.0
 11
0.0
 21
-2.0
 31
0.0
  0
LINE
  5
556
330
550
100
AcDbEntity
  8
SLD-0
 62
     0
100
AcDbLine
 10
0.0
 20
0.0
 30
0.0
 11
2.0
 21
0.0
 31
0.0
  0
ENDBLK
  5
552
330
550
100
AcDbEntity
  8
0
100
AcDbBlockEnd
  0
BLOCK
  5
559
330
558
100
AcDbEntity
  8
0
100
AcDbBlockBegin
  2
SW_CENTERMARKSYMBOL_10
 70
     0
 10
0.0
 20
0.0
 30
0.0
  3
SW_CENTERMARKSYMBOL_10
  1

  0
LINE
  5
55B
330
558
100
AcDbEntity
  8
SLD-0
 62
     0
100
AcDbLine
 10
0.0
 20
0.0
 30
0.0
 11
0.0
 21
2.0
 31
0.0
  0
LINE
  5
55C
330
558
100
AcDbEntity
  8
SLD-0
 62
     0
100
AcDbLine
 10
0.0
 20
0.0
 30
0.0
 11
-2.0
 21
0.0
 31
0.0
  0
LINE
  5
55D
330
558
100
AcDbEntity
  8
SLD-0
 62
     0
100
AcDbLine
 10
0.0
 20
0.0
 30
0.0
 11
0.0
 21
-2.0
 31
0.0
  0
LINE
  5
55E
330
558
100
AcDbEntity
  8
SLD-0
 62
     0
100
AcDbLine
 10
0.0
 20
0.0
 30
0.0
 11
2.0
 21
0.0
 31
0.0
  0
ENDBLK
  5
55A
330
558
100
AcDbEntity
  8
0
100
AcDbBlockEnd
  0
BLOCK
  5
561
330
560
100
AcDbEntity
  8
0
100
AcDbBlockBegin
  2
SW_CENTERMARKSYMBOL_11
 70
     0
 10
0.0
 20
0.0
 30
0.0
  3
SW_CENTERMARKSYMBOL_11
  1

  0
LINE
  5
563
330
560
100
AcDbEntity
  8
SLD-0
 62
     0
100
AcDbLine
 10
0.0
 20
0.0
 30
0.0
 11
0.0
 21
2.0
 31
0.0
  0
LINE
  5
564
330
560
100
AcDbEntity
  8
SLD-0
 62
     0
100
AcDbLine
 10
0.0
 20
0.0
 30
0.0
 11
-2.0
 21
0.0
 31
0.0
  0
LINE
  5
565
330
560
100
AcDbEntity
  8
SLD-0
 62
     0
100
AcDbLine
 10
0.0
 20
0.0
 30
0.0
 11
0.0
 21
-2.0
 31
0.0
  0
LINE
  5
566
330
560
100
AcDbEntity
  8
SLD-0
 62
     0
100
AcDbLine
 10
0.0
 20
0.0
 30
0.0
 11
2.0
 21
0.0
 31
0.0
  0
ENDBLK
  5
562
330
560
100
AcDbEntity
  8
0
100
AcDbBlockEnd
  0
ENDSEC
  0
SECTION
  2
ENTITIES
  0
LINE
  5
68
330
1F
100
AcDbEntity
  8
SLD-0
 62
     7
100
AcDbLine
 10
13.0
 20
545.8
 30
0.0
 11
850.6
 21
545.8
 31
0.0
  0
LINE
  5
69
330
1F
100
AcDbEntity
  8
0
  6
Continuous
 62
     7
370
    18
100
AcDbLine
 10
13.0
 20
34.0
 30
0.0
 11
850.6
 21
34.0
 31
0.0
  0
LINE
  5
6A
330
1F
100
AcDbEntity
  8
0
  6
CENTER
 62
     7
370
    18
100
AcDbLine
 10
364.2359183256
 20
16.3213718863
 30
0.0
 11
373.5789483244
 21
16.3213718863
 31
0.0
  0
LINE
  5
6B
330
1F
100
AcDbEntity
  8
0
  6
Continuous
 62
     7
370
    18
100
AcDbLine
 10
365.1816913093
 20
15.0513718863
 30
0.0
 11
372.8016913093
 21
13.7813718863
 31
0.0
  0
LINE
  5
6C
330
1F
100
AcDbEntity
  8
0
  6
Continuous
 62
     7
370
    18
100
AcDbLine
 10
365.1816913093
 20
17.5913718863
 30
0.0
 11
372.8016913093
 21
18.8613718863
 31
0.0
  0
LINE
  5
6D
330
1F
100
AcDbEntity
  8
0
  6
CENTER
 62
     7
370
    18
100
AcDbLine
 10
356.8098513093
 20
16.3213718863
 30
0.0
 11
363.3345457374
 21
16.3213718863
 31
0.0
  0
LINE
  5
6E
330
1F
100
AcDbEntity
  8
0
  6
CENTER
 62
     7
370
    18
100
AcDbLine
 10
360.0721985234
 20
13.0256279707
 30
0.0
 11
360.0721985234
 21
19.6171158019
 31
0.0
  0
LINE
  5
6F
330
1F
100
AcDbEntity
  8
0
  6
Continuous
 62
     7
370
    18
100
AcDbLine
 10
365.1816913093
 20
17.5913718863
 30
0.0
 11
365.1816913093
 21
15.0513718863
 31
0.0
  0
LINE
  5
70
330
1F
100
AcDbEntity
  8
0
  6
Continuous
 62
     7
370
    18
100
AcDbLine
 10
372.8016913093
 20
18.8613718863
 30
0.0
 11
372.8016913093
 21
13.7813718863
 31
0.0
  0
CIRCLE
  5
71
330
1F
100
AcDbEntity
  8
0
  6
Continuous
 62
     7
370
    18
100
AcDbCircle
 10
360.0721985234
 20
16.3213718863
 30
0.0
 40
2.539999999999856
  0
CIRCLE
  5
72
330
1F
100
AcDbEntity
  8
0
  6
Continuous
 62
     7
370
    18
100
AcDbCircle
 10
360.0721985234
 20
16.3213718863
 30
0.0
 40
1.269999999999931
  0
MTEXT
  5
74
330
1F
100
AcDbEntity
  8
0
  6
Continuous
 62
     7
370
     0
100
AcDbMText
 10
295.4555979572
 20
29.8184112811
 30
0.0
 40
2.6458333333
 41
0.0
 71
     2
 72
     1
  1
CAGE CODE
  7
SLDTEXTSTYLE0
 73
     1
 44
1.0
  0
MTEXT
  5
75
330
1F
100
AcDbEntity
  8
0
  6
Continuous
 62
     7
370
     0
100
AcDbMText
 10
295.4516182606
 20
26.290633546
 30
0.0
 40
2.6458333333
 41
0.0
 71
     2
 72
     1
  1
00PW4
  7
SLDTEXTSTYLE0
 73
     1
 44
1.0
  0
MTEXT
  5
76
330
1F
100
AcDbEntity
  8
0
  6
Continuous
 62
     7
370
     0
100
AcDbMText
 10
453.4011705876
 20
16.8180541103
 30
0.0
 40
3.175
 41
0.0
 71
     1
 72
     1
  1
D. GREEN
  7
SLDTEXTSTYLE0
 73
     1
 44
1.0
  0
MTEXT
  5
77
330
1F
100
AcDbEntity
  8
0
  6
Continuous
 62
     7
370
     0
100
AcDbMText
 10
325.020402145
 20
29.8184112811
 30
0.0
 40
2.6458333333
 41
0.0
 71
     1
 72
     1
  1
UNLESS  OTHERWISE  SPECIFIED
  7
SLDTEXTSTYLE0
 73
     1
 44
1.0
  0
MTEXT
  5
78
330
1F
100
AcDbEntity
  8
0
  6
Continuous
 62
     7
370
     0
100
AcDbMText
 10
325.020402145
 20
26.290633546
 30
0.0
 40
2.6458333333
 41
0.0
 71
     1
 72
     1
  1
DIMENSIONS  ARE  IN  MM [IN]
  7
SLDTEXTSTYLE0
 73
     1
 44
1.0
  0
MTEXT
  5
79
330
1F
100
AcDbEntity
  8
0
  6
Continuous
 62
     7
370
     0
100
AcDbMText
 10
791.8967390653
 20
17.0145523481
 30
0.0
 40
3.175
 41
0.0
 71
     2
 72
     1
  1
1:2
  7
SLDTEXTSTYLE0
 73
     1
 44
1.0
  0
MTEXT
  5
7A
330
1F
100
AcDbEntity
  8
0
  6
Continuous
 62
     7
370
     0
100
AcDbMText
 10
325.020402145
 20
17.6626278948
 30
0.0
 40
2.6458333333
 41
0.0
 71
     1
 72
     1
  1
PROJECTION
  7
SLDTEXTSTYLE0
 73
     1
 44
1.0
  0
MTEXT
  5
7B
330
1F
100
AcDbEntity
  8
0
  6
Continuous
 62
     7
370
     0
100
AcDbMText
 10
424.1402626983
 20
21.0102299196
 30
0.0
 40
3.175
 41
0.0
 71
     1
 72
     1
  1
%%p
  7
SLDTEXTSTYLE0
 73
     1
 44
1.0
  0
MTEXT
  5
7C
330
1F
100
AcDbEntity
  8
0
  6
Continuous
 62
     7
370
     0
100
AcDbMText
 10
427.1670959904
 20
21.0102299196
 30
0.0
 40
3.175
 41
0.0
 71
     1
 72
     1
  1
1
  7
SLDTEXTSTYLE0
 73
     1
 44
1.0
  0
MTEXT
  5
7D
330
1F
100
AcDbEntity
  8
0
  6
Continuous
 62
     7
370
     0
100
AcDbMText
 10
429.5130682192
 20
21.0102299196
 30
0.0
 40
3.175
 41
0.0
 71
     1
 72
     1
  1
%%d
  7
SLDTEXTSTYLE0
 73
     1
 44
1.0
  0
MTEXT
  5
7E
330
1F
100
AcDbEntity
  8
0
  6
Continuous
 62
     7
370
     0
100
AcDbMText
 10
394.4325506565
 20
21.0102299196
 30
0.0
 40
3.175
 41
0.0
 71
     1
 72
     1
  1
.X 
  7
SLDTEXTSTYLE0
 73
     1
 44
1.0
  0
MTEXT
  5
7F
330
1F
100
AcDbEntity
  8
0
  6
Continuous
 62
     7
370
     0
100
AcDbMText
 10
399.3479212624
 20
21.0102299196
 30
0.0
 40
3.175
 41
0.0
 71
     1
 72
     1
  1
%%p
  7
SLDTEXTSTYLE0
 73
     1
 44
1.0
  0
MTEXT
  5
80
330
1F
100
AcDbEntity
  8
0
  6
Continuous
 62
     7
370
     0
100
AcDbMText
 10
402.3747540889
 20
21.0102299196
 30
0.0
 40
3.175
 41
0.0
 71
     1
 72
     1
  1
 3.0
  7
SLDTEXTSTYLE0
 73
     1
 44
1.0
  0
MTEXT
  5
81
330
1F
100
AcDbEntity
  8
0
  6
Continuous
 62
     7
370
     0
100
AcDbMText
 10
394.4325506565
 20
16.7768966374
 30
0.0
 40
3.175
 41
0.0
 71
     1
 72
     1
  1
.XX 
  7
SLDTEXTSTYLE0
 73
     1
 44
1.0
  0
MTEXT
  5
82
330
1F
100
AcDbEntity
  8
0
  6
Continuous
 62
     7
370
     0
100
AcDbMText
 10
401.9231986133
 20
16.7768966374
 30
0.0
 40
3.175
 41
0.0
 71
     1
 72
     1
  1
%%p
  7
SLDTEXTSTYLE0
 73
     1
 44
1.0
  0
MTEXT
  5
83
330
1F
100
AcDbEntity
  8
0
  6
Continuous
 62
     7
370
     0
100
AcDbMText
 10
684.3605373276
 20
28.4360499343
 30
0.0
 40
5.8208333333
 41
0.0
 71
     2
 72
     1
  1
PROCESSOR,QIO-TEL2,T003
  7
SLDTEXTSTYLE0
 73
     1
 44
1.0
  0
MTEXT
  5
84
330
1F
100
AcDbEntity
  8
0
  6
Continuous
 62
     7
370
     0
100
AcDbMText
 10
394.4325506565
 20
29.8184112811
 30
0.0
 40
2.6458333333
 41
0.0
 71
     1
 72
     1
  1
TOLERANCES  ARE:
  7
SLDTEXTSTYLE0
 73
     1
 44
1.0
  0
MTEXT
  5
85
330
1F
100
AcDbEntity
  8
0
  6
Continuous
 62
     7
370
     0
100
AcDbMText
 10
394.4325506565
 20
26.290633546
 30
0.0
 40
2.6458333333
 41
0.0
 71
     1
 72
     1
  1
DECIMALS          ANGLES
  7
SLDTEXTSTYLE0
 73
     1
 44
1.0
  0
MTEXT
  5
86
330
1F
100
AcDbEntity
  8
0
  6
Continuous
 62
     7
370
     0
100
AcDbMText
 10
509.2368872533
 20
20.8062403245
 30
0.0
 40
2.6458333333
 41
0.0
 71
     1
 72
     1
  1
MFG ENGINEER
  7
SLDTEXTSTYLE0
 73
     1
 44
1.0
  0
MTEXT
  5
87
330
1F
100
AcDbEntity
  8
0
  6
Continuous
 62
     7
370
     0
100
AcDbMText
 10
453.4011705876
 20
20.8062403245
 30
0.0
 40
2.6458333333
 41
0.0
 71
     1
 72
     1
  1
MECH ENGINEER
  7
SLDTEXTSTYLE0
 73
     1
 44
1.0
  0
MTEXT
  5
89
330
1F
100
AcDbEntity
  8
0
  6
Continuous
 62
     7
370
     0
100
AcDbMText
 10
776.9809949308
 20
16.5597523616
 30
0.0
 40
2.6458333333
 41
0.0
 71
     1
 72
     1
  1
SCALE:  
  7
SLDTEXTSTYLE1
 73
     1
 44
1.0
  0
MTEXT
  5
8A
330
1F
100
AcDbEntity
  8
SLD-0
 62
     7
100
AcDbMText
 10
776.8270341986
 20
25.8049873894
 30
0.0
 40
5.8208333333
 41
0.0
 71
     1
 72
     1
  1
FG-901559-2D
  7
SLDTEXTSTYLE0
 73
     1
 44
1.0
  0
MTEXT
  5
8B
330
1F
100
AcDbEntity
  8
0
  6
Continuous
 62
     7
370
     0
100
AcDbMText
 10
843.7884558662
 20
25.8819677555
 30
0.0
 40
5.8208333333
 41
0.0
 71
     2
 72
     1
  1
A
  7
SLDTEXTSTYLE0
 73
     1
 44
1.0
  0
MTEXT
  5
8C
330
1F
100
AcDbEntity
  8
0
  6
Continuous
 62
     7
370
     0
100
AcDbMText
 10
843.9386312261
 20
17.0221808477
 30
0.0
 40
3.175
 41
0.0
 71
     2
 72
     1
  1
2  OF  2
  7
SLDTEXTSTYLE0
 73
     1
 44
1.0
  0
MTEXT
  5
8D
330
1F
100
AcDbEntity
  8
0
  6
Continuous
 62
     7
370
     0
100
AcDbMText
 10
776.9809949308
 20
29.8518608785
 30
0.0
 40
2.6458333333
 41
0.0
 71
     1
 72
     1
  1
DRAWING NUMBER
  7
SLDTEXTSTYLE0
 73
     1
 44
1.0
  0
MTEXT
  5
8E
330
1F
100
AcDbEntity
  8
SLD-0
 62
     7
100
AcDbMText
 10
509.2368872533
 20
29.8184112811
 30
0.0
 40
2.6458333333
 41
0.0
 71
     1
 72
     1
  1
TECH DIRECTOR
  7
SLDTEXTSTYLE0
 73
     1
 44
1.0
  0
MTEXT
  5
8F
330
1F
100
AcDbEntity
  8
SLD-0
 62
     7
100
AcDbMText
 10
453.4011705876
 20
29.8184112811
 30
0.0
 40
2.6458333333
 41
0.0
 71
     1
 72
     1
  1
DRAWN BY
  7
SLDTEXTSTYLE0
 73
     1
 44
1.0
  0
MTEXT
  5
90
330
1F
100
AcDbEntity
  8
SLD-0
 62
     7
100
AcDbMText
 10
453.4011705876
 20
26.0649705192
 30
0.0
 40
3.175
 41
0.0
 71
     1
 72
     1
  1
D. GREEN
  7
SLDTEXTSTYLE0
 73
     1
 44
1.0
  0
MTEXT
  5
91
330
1F
100
AcDbEntity
  8
SLD-0
 62
     7
100
AcDbMText
 10
509.2368872533
 20
16.8180541103
 30
0.0
 40
3.175
 41
0.0
 71
     1
 72
     1
  1
C. WHITNEY
  7
SLDTEXTSTYLE0
 73
     1
 44
1.0
  0
MTEXT
  5
92
330
1F
100
AcDbEntity
  8
SLD-0
 62
     7
100
AcDbMText
 10
509.2368872533
 20
26.0649705192
 30
0.0
 40
3.175
 41
0.0
 71
     1
 72
     1
  1
A. FOSTER
  7
SLDTEXTSTYLE0
 73
     1
 44
1.0
  0
MTEXT
  5
94
330
1F
100
AcDbEntity
  8
0
  6
Continuous
 62
     7
370
     0
100
AcDbMText
 10
214.5978497182
 20
28.8628262669
 30
0.0
 40
2.1166666667
 41
0.0
 71
     2
 72
     1
  1
THIS DOCUMENT CONTAINS CONFIDENTIAL OR PROPRIETARY INFORMATION WHICH 
  7
SLDTEXTSTYLE2
 73
     1
 44
1.0
  0
MTEXT
  5
95
330
1F
100
AcDbEntity
  8
0
  6
Continuous
 62
     7
370
     0
100
AcDbMText
 10
214.7807271828
 20
26.0406040788
 30
0.0
 40
2.1166666667
 41
0.0
 71
     2
 72
     1
  1
IS THE PROPERTY OF QSC, LLC THAT MAY NOT BE DISCLOSED, REPRODUCED OR 
  7
SLDTEXTSTYLE2
 73
     1
 44
1.0
  0
MTEXT
  5
96
330
1F
100
AcDbEntity
  8
0
  6
Continuous
 62
     7
370
     0
100
AcDbMText
 10
214.7396428523
 20
23.2183818906
 30
0.0
 40
2.1166666667
 41
0.0
 71
     2
 72
     1
  1
USED WITHOUT EXPRESS WRITTEN CONSENT FROM QSC, LLC. NO PORTION OF THIS 
  7
SLDTEXTSTYLE2
 73
     1
 44
1.0
  0
MTEXT
  5
97
330
1F
100
AcDbEntity
  8
0
  6
Continuous
 62
     7
370
     0
100
AcDbMText
 10
214.669085854
 20
20.3961597025
 30
0.0
 40
2.1166666667
 41
0.0
 71
     2
 72
     1
  1
DOCUMENT MAY BE REPRODUCED, REDISTRIBUTED, OR OTHERWISE DISCLOSED TO 
  7
SLDTEXTSTYLE2
 73
     1
 44
1.0
  0
MTEXT
  5
99
330
1F
100
AcDbEntity
  8
0
  6
Continuous
 62
     7
370
     0
100
AcDbMText
 10
214.3203060281
 20
17.5739375144
 30
0.0
 40
2.1166666667
 41
0.0
 71
     2
 72
     1
  1
ANY THIRD PARTY WITHOUT QSC\U+2019S WRITTEN PERMISSION.
  7
SLDTEXTSTYLE3
 73
     1
 44
1.0
  0
MTEXT
  5
9A
330
1F
100
AcDbEntity
  8
0
  6
Continuous
 62
     7
370
     0
100
AcDbMText
 10
823.8413430067
 20
16.5020633219
 30
0.0
 40
2.6458333333
 41
0.0
 71
     1
 72
     1
  1
SHEET:
  7
SLDTEXTSTYLE0
 73
     1
 44
1.0
  0
MTEXT
  5
9B
330
1F
100
AcDbEntity
  8
SLD-0
100
AcDbMText
 10
97.3493299391
 20
27.387582958
 30
0.0
 40
2.6458333333
 41
0.0
 71
     1
 72
     1
  1
QSC, LLC
  7
SLDTEXTSTYLE0
 73
     1
 44
1.0
  0
MTEXT
  5
9C
330
1F
100
AcDbEntity
  8
0
  6
Continuous
 62
     7
370
     0
100
AcDbMText
 10
844.0018372523
 20
29.9050913038
 30
0.0
 40
2.6458333333
 41
0.0
 71
     2
 72
     1
  1
REV
  7
SLDTEXTSTYLE0
 73
     1
 44
1.0
  0
MTEXT
  5
9D
330
1F
100
AcDbEntity
  8
SLD-0
 62
     7
100
AcDbMText
 10
564.546153547
 20
29.8184112811
 30
0.0
 40
2.6458333333
 41
0.0
 71
     1
 72
     1
  1
REV BY
  7
SLDTEXTSTYLE0
 73
     1
 44
1.0
  0
MTEXT
  5
9E
330
1F
100
AcDbEntity
  8
SLD-0
 62
     7
100
AcDbMText
 10
564.546153547
 20
26.0649705192
 30
0.0
 40
3.175
 41
0.0
 71
     1
 72
     1
  1
D. GREEN
  7
SLDTEXTSTYLE0
 73
     1
 44
1.0
  0
MTEXT
  5
9F
330
1F
100
AcDbEntity
  8
SLD-0
 62
     7
100
AcDbMText
 10
564.546153547
 20
16.8180541103
 30
0.0
 40
3.175
 41
0.0
 71
     1
 72
     1
  1
31-AUG-2023
  7
SLDTEXTSTYLE0
 73
     1
 44
1.0
  0
MTEXT
  5
A0
330
1F
100
AcDbEntity
  8
0
  6
Continuous
 62
     7
370
     0
100
AcDbMText
 10
564.546153547
 20
20.8062403245
 30
0.0
 40
2.6458333333
 41
0.0
 71
     1
 72
     1
  1
REV DATE
  7
SLDTEXTSTYLE0
 73
     1
 44
1.0
  0
MTEXT
  5
A1
330
1F
100
AcDbEntity
  8
SLD-0
100
AcDbMText
 10
295.2214945354
 20
21.4807382865
 30
0.0
 40
2.6458333333
 41
0.0
 71
     2
 72
     1
  1
Form:
  7
SLDTEXTSTYLE0
 73
     1
 44
1.0
  0
MTEXT
  5
A2
330
1F
100
AcDbEntity
  8
0
  6
Continuous
 62
     7
370
     0
100
AcDbMText
 10
295.0457193775
 20
17.6626278948
 30
0.0
 40
2.6458333333
 41
0.0
 71
     2
 72
     1
  1
QOS40169-A
  7
SLDTEXTSTYLE0
 73
     1
 44
1.0
  0
MTEXT
  5
A3
330
1F
100
AcDbEntity
  8
SLD-0
100
AcDbMText
 10
97.3493299391
 20
19.1132184348
 30
0.0
 40
2.6458333333
 41
0.0
 71
     1
 72
     1
  1
COSTA MESA, CA 92626 USA
  7
SLDTEXTSTYLE0
 73
     1
 44
1.0
  0
MTEXT
  5
A4
330
1F
100
AcDbEntity
  8
SLD-0
100
AcDbMText
 10
97.3493299391
 20
23.3095776143
 30
0.0
 40
2.6458333333
 41
0.0
 71
     1
 72
     1
  1
1675 MACARTHUR BLVD
  7
SLDTEXTSTYLE0
 73
     1
 44
1.0
  0
CIRCLE
  5
A5
330
1F
100
AcDbEntity
  8
0
  6
Continuous
 62
     7
370
    25
100
AcDbCircle
 10
326.698234146
 20
305.0055167764
 30
0.0
 40
1.650000000000034
  0
CIRCLE
  5
A6
330
1F
100
AcDbEntity
  8
0
  6
Continuous
 62
     7
370
    25
100
AcDbCircle
 10
331.198234146
 20
305.0055167764
 30
0.0
 40
1.649999999999977
  0
CIRCLE
  5
A7
330
1F
100
AcDbEntity
  8
0
  6
Continuous
 62
     7
370
    25
100
AcDbCircle
 10
335.698234146
 20
305.0055167764
 30
0.0
 40
1.649999999999977
  0
CIRCLE
  5
A8
330
1F
100
AcDbEntity
  8
0
  6
Continuous
 62
     7
370
    25
100
AcDbCircle
 10
340.198234146
 20
305.0055167764
 30
0.0
 40
1.649999999999977
  0
CIRCLE
  5
A9
330
1F
100
AcDbEntity
  8
0
  6
Continuous
 62
     7
370
    25
100
AcDbCircle
 10
344.698234146
 20
305.0055167764
 30
0.0
 40
1.649999999999977
  0
CIRCLE
  5
AA
330
1F
100
AcDbEntity
  8
0
  6
Continuous
 62
     7
370
    25
100
AcDbCircle
 10
349.198234146
 20
305.0055167764
 30
0.0
 40
1.649999999999977
  0
CIRCLE
  5
AB
330
1F
100
AcDbEntity
  8
0
  6
Continuous
 62
     7
370
    25
100
AcDbCircle
 10
353.698234146
 20
305.0055167764
 30
0.0
 40
1.649999999999977
  0
CIRCLE
  5
AC
330
1F
100
AcDbEntity
  8
0
  6
Continuous
 62
     7
370
    25
100
AcDbCircle
 10
358.198234146
 20
305.0055167764
 30
0.0
 40
1.649999999999977
  0
CIRCLE
  5
AD
330
1F
100
AcDbEntity
  8
0
  6
Continuous
 62
     7
370
    25
100
AcDbCircle
 10
362.698234146
 20
305.0055167764
 30
0.0
 40
1.649999999999977
  0
CIRCLE
  5
AE
330
1F
100
AcDbEntity
  8
0
  6
Continuous
 62
     7
370
    25
100
AcDbCircle
 10
367.198234146
 20
305.0055167764
 30
0.0
 40
1.650000000000034
  0
CIRCLE
  5
AF
330
1F
100
AcDbEntity
  8
0
  6
Continuous
 62
     7
370
    25
100
AcDbCircle
 10
371.698234146
 20
305.0055167764
 30
0.0
 40
1.650000000000034
  0
CIRCLE
  5
B0
330
1F
100
AcDbEntity
  8
0
  6
Continuous
 62
     7
370
    25
100
AcDbCircle
 10
376.198234146
 20
305.0055167764
 30
0.0
 40
1.650000000000091
  0
CIRCLE
  5
B1
330
1F
100
AcDbEntity
  8
0
  6
Continuous
 62
     7
370
    25
100
AcDbCircle
 10
380.698234146
 20
305.0055167764
 30
0.0
 40
1.650000000000034
  0
CIRCLE
  5
B2
330
1F
100
AcDbEntity
  8
0
  6
Continuous
 62
     7
370
    25
100
AcDbCircle
 10
385.198234146
 20
305.0055167764
 30
0.0
 40
1.649999999999977
  0
CIRCLE
  5
B3
330
1F
100
AcDbEntity
  8
0
  6
Continuous
 62
     7
370
    25
100
AcDbCircle
 10
389.698234146
 20
305.0055167764
 30
0.0
 40
1.649999999999977
  0
CIRCLE
  5
B4
330
1F
100
AcDbEntity
  8
0
  6
Continuous
 62
     7
370
    25
100
AcDbCircle
 10
394.198234146
 20
305.0055167764
 30
0.0
 40
1.649999999999977
  0
CIRCLE
  5
B5
330
1F
100
AcDbEntity
  8
0
  6
Continuous
 62
     7
370
    25
100
AcDbCircle
 10
398.698234146
 20
305.0055167764
 30
0.0
 40
1.649999999999977
  0
CIRCLE
  5
B6
330
1F
100
AcDbEntity
  8
0
  6
Continuous
 62
     7
370
    25
100
AcDbCircle
 10
403.198234146
 20
305.0055167764
 30
0.0
 40
1.649999999999977
  0
CIRCLE
  5
B7
330
1F
100
AcDbEntity
  8
0
  6
Continuous
 62
     7
370
    25
100
AcDbCircle
 10
407.698234146
 20
305.0055167764
 30
0.0
 40
1.649999999999977
  0
CIRCLE
  5
B8
330
1F
100
AcDbEntity
  8
0
  6
Continuous
 62
     7
370
    25
100
AcDbCircle
 10
421.198234146
 20
305.0055167764
 30
0.0
 40
1.650000000000034
  0
CIRCLE
  5
B9
330
1F
100
AcDbEntity
  8
0
  6
Continuous
 62
     7
370
    25
100
AcDbCircle
 10
326.698234146
 20
300.5055167764
 30
0.0
 40
1.650000000000034
  0
CIRCLE
  5
BA
330
1F
100
AcDbEntity
  8
0
  6
Continuous
 62
     7
370
    25
100
AcDbCircle
 10
331.198234146
 20
300.5055167764
 30
0.0
 40
1.649999999999977
  0
CIRCLE
  5
BB
330
1F
100
AcDbEntity
  8
0
  6
Continuous
 62
     7
370
    25
100
AcDbCircle
 10
335.698234146
 20
300.5055167764
 30
0.0
 40
1.649999999999977
  0
CIRCLE
  5
BC
330
1F
100
AcDbEntity
  8
0
  6
Continuous
 62
     7
370
    25
100
AcDbCircle
 10
340.198234146
 20
300.5055167764
 30
0.0
 40
1.649999999999977
  0
CIRCLE
  5
BD
330
1F
100
AcDbEntity
  8
0
  6
Continuous
 62
     7
370
    25
100
AcDbCircle
 10
344.698234146
 20
300.5055167764
 30
0.0
 40
1.649999999999977
  0
CIRCLE
  5
BE
330
1F
100
AcDbEntity
  8
0
  6
Continuous
 62
     7
370
    25
100
AcDbCircle
 10
349.198234146
 20
300.5055167764
 30
0.0
 40
1.649999999999977
  0
CIRCLE
  5
BF
330
1F
100
AcDbEntity
  8
0
  6
Continuous
 62
     7
370
    25
100
AcDbCircle
 10
353.698234146
 20
300.5055167764
 30
0.0
 40
1.649999999999977
  0
CIRCLE
  5
C0
330
1F
100
AcDbEntity
  8
0
  6
Continuous
 62
     7
370
    25
100
AcDbCircle
 10
358.198234146
 20
300.5055167764
 30
0.0
 40
1.649999999999977
  0
CIRCLE
  5
C1
330
1F
100
AcDbEntity
  8
0
  6
Continuous
 62
     7
370
    25
100
AcDbCircle
 10
362.698234146
 20
300.5055167764
 30
0.0
 40
1.649999999999977
  0
CIRCLE
  5
C2
330
1F
100
AcDbEntity
  8
0
  6
Continuous
 62
     7
370
    25
100
AcDbCircle
 10
367.198234146
 20
300.5055167764
 30
0.0
 40
1.650000000000034
  0
CIRCLE
  5
C3
330
1F
100
AcDbEntity
  8
0
  6
Continuous
 62
     7
370
    25
100
AcDbCircle
 10
371.698234146
 20
300.5055167764
 30
0.0
 40
1.650000000000034
  0
CIRCLE
  5
C4
330
1F
100
AcDbEntity
  8
0
  6
Continuous
 62
     7
370
    25
100
AcDbCircle
 10
376.198234146
 20
300.5055167764
 30
0.0
 40
1.650000000000091
  0
CIRCLE
  5
C5
330
1F
100
AcDbEntity
  8
0
  6
Continuous
 62
     7
370
    25
100
AcDbCircle
 10
380.698234146
 20
300.5055167764
 30
0.0
 40
1.650000000000034
  0
CIRCLE
  5
C6
330
1F
100
AcDbEntity
  8
0
  6
Continuous
 62
     7
370
    25
100
AcDbCircle
 10
385.198234146
 20
300.5055167764
 30
0.0
 40
1.649999999999977
  0
CIRCLE
  5
C7
330
1F
100
AcDbEntity
  8
0
  6
Continuous
 62
     7
370
    25
100
AcDbCircle
 10
389.698234146
 20
300.5055167764
 30
0.0
 40
1.649999999999977
  0
CIRCLE
  5
C8
330
1F
100
AcDbEntity
  8
0
  6
Continuous
 62
     7
370
    25
100
AcDbCircle
 10
394.198234146
 20
300.5055167764
 30
0.0
 40
1.649999999999977
  0
CIRCLE
  5
C9
330
1F
100
AcDbEntity
  8
0
  6
Continuous
 62
     7
370
    25
100
AcDbCircle
 10
398.698234146
 20
300.5055167764
 30
0.0
 40
1.649999999999977
  0
CIRCLE
  5
CA
330
1F
100
AcDbEntity
  8
0
  6
Continuous
 62
     7
370
    25
100
AcDbCircle
 10
403.198234146
 20
300.5055167764
 30
0.0
 40
1.649999999999977
  0
CIRCLE
  5
CB
330
1F
100
AcDbEntity
  8
0
  6
Continuous
 62
     7
370
    25
100
AcDbCircle
 10
407.698234146
 20
300.5055167764
 30
0.0
 40
1.649999999999977
  0
CIRCLE
  5
CC
330
1F
100
AcDbEntity
  8
0
  6
Continuous
 62
     7
370
    25
100
AcDbCircle
 10
412.198234146
 20
300.5055167764
 30
0.0
 40
1.649999999999977
  0
CIRCLE
  5
CD
330
1F
100
AcDbEntity
  8
0
  6
Continuous
 62
     7
370
    25
100
AcDbCircle
 10
421.198234146
 20
300.5055167764
 30
0.0
 40
1.650000000000034
  0
CIRCLE
  5
CE
330
1F
100
AcDbEntity
  8
0
  6
Continuous
 62
     7
370
    25
100
AcDbCircle
 10
326.698234146
 20
296.0055167764
 30
0.0
 40
1.650000000000034
  0
CIRCLE
  5
CF
330
1F
100
AcDbEntity
  8
0
  6
Continuous
 62
     7
370
    25
100
AcDbCircle
 10
331.198234146
 20
296.0055167764
 30
0.0
 40
1.649999999999977
  0
CIRCLE
  5
D0
330
1F
100
AcDbEntity
  8
0
  6
Continuous
 62
     7
370
    25
100
AcDbCircle
 10
335.698234146
 20
296.0055167764
 30
0.0
 40
1.649999999999977
  0
CIRCLE
  5
D1
330
1F
100
AcDbEntity
  8
0
  6
Continuous
 62
     7
370
    25
100
AcDbCircle
 10
340.198234146
 20
296.0055167764
 30
0.0
 40
1.649999999999977
  0
CIRCLE
  5
D2
330
1F
100
AcDbEntity
  8
0
  6
Continuous
 62
     7
370
    25
100
AcDbCircle
 10
344.698234146
 20
296.0055167764
 30
0.0
 40
1.649999999999977
  0
CIRCLE
  5
D3
330
1F
100
AcDbEntity
  8
0
  6
Continuous
 62
     7
370
    25
100
AcDbCircle
 10
349.198234146
 20
296.0055167764
 30
0.0
 40
1.649999999999977
  0
CIRCLE
  5
D4
330
1F
100
AcDbEntity
  8
0
  6
Continuous
 62
     7
370
    25
100
AcDbCircle
 10
353.698234146
 20
296.0055167764
 30
0.0
 40
1.649999999999977
  0
CIRCLE
  5
D5
330
1F
100
AcDbEntity
  8
0
  6
Continuous
 62
     7
370
    25
100
AcDbCircle
 10
358.198234146
 20
296.0055167764
 30
0.0
 40
1.649999999999977
  0
CIRCLE
  5
D6
330
1F
100
AcDbEntity
  8
0
  6
Continuous
 62
     7
370
    25
100
AcDbCircle
 10
362.698234146
 20
296.0055167764
 30
0.0
 40
1.649999999999977
  0
CIRCLE
  5
D7
330
1F
100
AcDbEntity
  8
0
  6
Continuous
 62
     7
370
    25
100
AcDbCircle
 10
367.198234146
 20
296.0055167764
 30
0.0
 40
1.650000000000034
  0
CIRCLE
  5
D8
330
1F
100
AcDbEntity
  8
0
  6
Continuous
 62
     7
370
    25
100
AcDbCircle
 10
371.698234146
 20
296.0055167764
 30
0.0
 40
1.650000000000034
  0
CIRCLE
  5
D9
330
1F
100
AcDbEntity
  8
0
  6
Continuous
 62
     7
370
    25
100
AcDbCircle
 10
376.198234146
 20
296.0055167764
 30
0.0
 40
1.650000000000091
  0
CIRCLE
  5
DA
330
1F
100
AcDbEntity
  8
0
  6
Continuous
 62
     7
370
    25
100
AcDbCircle
 10
380.698234146
 20
296.0055167764
 30
0.0
 40
1.650000000000034
  0
CIRCLE
  5
DB
330
1F
100
AcDbEntity
  8
0
  6
Continuous
 62
     7
370
    25
100
AcDbCircle
 10
385.198234146
 20
296.0055167764
 30
0.0
 40
1.649999999999977
  0
CIRCLE
  5
DC
330
1F
100
AcDbEntity
  8
0
  6
Continuous
 62
     7
370
    25
100
AcDbCircle
 10
389.698234146
 20
296.0055167764
 30
0.0
 40
1.649999999999977
  0
CIRCLE
  5
DD
330
1F
100
AcDbEntity
  8
0
  6
Continuous
 62
     7
370
    25
100
AcDbCircle
 10
394.198234146
 20
296.0055167764
 30
0.0
 40
1.649999999999977
  0
CIRCLE
  5
DE
330
1F
100
AcDbEntity
  8
0
  6
Continuous
 62
     7
370
    25
100
AcDbCircle
 10
398.698234146
 20
296.0055167764
 30
0.0
 40
1.649999999999977
  0
CIRCLE
  5
DF
330
1F
100
AcDbEntity
  8
0
  6
Continuous
 62
     7
370
    25
100
AcDbCircle
 10
403.198234146
 20
296.0055167764
 30
0.0
 40
1.649999999999977
  0
CIRCLE
  5
E0
330
1F
100
AcDbEntity
  8
0
  6
Continuous
 62
     7
370
    25
100
AcDbCircle
 10
407.698234146
 20
296.0055167764
 30
0.0
 40
1.649999999999977
  0
CIRCLE
  5
E1
330
1F
100
AcDbEntity
  8
0
  6
Continuous
 62
     7
370
    25
100
AcDbCircle
 10
412.198234146
 20
296.0055167764
 30
0.0
 40
1.649999999999977
  0
CIRCLE
  5
E2
330
1F
100
AcDbEntity
  8
0
  6
Continuous
 62
     7
370
    25
100
AcDbCircle
 10
416.698234146
 20
296.0055167764
 30
0.0
 40
1.649999999999977
  0
CIRCLE
  5
E3
330
1F
100
AcDbEntity
  8
0
  6
Continuous
 62
     7
370
    25
100
AcDbCircle
 10
421.198234146
 20
296.0055167764
 30
0.0
 40
1.650000000000034
  0
LINE
  5
E4
330
1F
100
AcDbEntity
  8
0
  6
Continuous
 62
     7
370
    25
100
AcDbLine
 10
319.448234146
 20
291.0055167764
 30
0.0
 11
428.448234146
 21
291.0055167764
 31
0.0
  0
LINE
  5
E5
330
1F
100
AcDbEntity
  8
0
  6
Continuous
 62
     7
370
    25
100
AcDbLine
 10
319.448234146
 20
333.4055167764
 30
0.0
 11
319.448234146
 21
291.0055167764
 31
0.0
  0
LINE
  5
E6
330
1F
100
AcDbEntity
  8
0
  6
Continuous
 62
     7
370
    25
100
AcDbLine
 10
428.448234146
 20
333.4055167764
 30
0.0
 11
319.448234146
 21
333.4055167764
 31
0.0
  0
LINE
  5
E7
330
1F
100
AcDbEntity
  8
0
  6
Continuous
 62
     7
370
    25
100
AcDbLine
 10
428.448234146
 20
291.0055167764
 30
0.0
 11
428.448234146
 21
333.4055167764
 31
0.0
  0
CIRCLE
  5
E8
330
1F
100
AcDbEntity
  8
0
  6
Continuous
 62
     7
370
    25
100
AcDbCircle
 10
416.698234146
 20
305.0055167764
 30
0.0
 40
1.649999999999977
  0
CIRCLE
  5
E9
330
1F
100
AcDbEntity
  8
0
  6
Continuous
 62
     7
370
    25
100
AcDbCircle
 10
416.698234146
 20
300.5055167764
 30
0.0
 40
1.649999999999977
  0
CIRCLE
  5
EA
330
1F
100
AcDbEntity
  8
0
  6
Continuous
 62
     7
370
    25
100
AcDbCircle
 10
412.198234146
 20
305.0055167764
 30
0.0
 40
1.649999999999977
  0
CIRCLE
  5
EB
330
1F
100
AcDbEntity
  8
0
  6
Continuous
 62
     7
370
    25
100
AcDbCircle
 10
412.1981274989
 20
317.2554583017
 30
0.0
 40
3.730902000393712
  0
ARC
  5
EC
330
1F
100
AcDbEntity
  8
0
  6
Continuous
 62
     7
370
    25
100
AcDbCircle
 10
418.4965304373
 20
324.0538130677
 30
0.0
 40
3.0
100
AcDbArc
 50
0.0
 51
90.0
  0
LINE
  5
ED
330
1F
100
AcDbEntity
  8
0
  6
Continuous
 62
     7
370
    25
100
AcDbLine
 10
421.4965304373
 20
312.9572204851
 30
0.0
 11
421.4965304373
 21
324.0538130677
 31
0.0
  0
LINE
  5
EE
330
1F
100
AcDbEntity
  8
0
  6
Continuous
 62
     7
370
    25
100
AcDbLine
 10
418.4965304373
 20
327.0538130677
 30
0.0
 11
329.3999378547
 21
327.0538130677
 31
0.0
  0
ARC
  5
EF
330
1F
100
AcDbEntity
  8
0
  6
Continuous
 62
     7
370
    25
100
AcDbCircle
 10
418.4965304373
 20
312.9572204851
 30
0.0
 40
3.0
100
AcDbArc
 50
270.0
 51
0.0
  0
ARC
  5
F0
330
1F
100
AcDbEntity
  8
0
  6
Continuous
 62
     7
370
    25
100
AcDbCircle
 10
329.3999378547
 20
324.0538130677
 30
0.0
 40
3.000000000000057
100
AcDbArc
 50
90.0
 51
180.0
  0
LINE
  5
F1
330
1F
100
AcDbEntity
  8
0
  6
Continuous
 62
     7
370
    25
100
AcDbLine
 10
329.3999378547
 20
309.9572204851
 30
0.0
 11
418.4965304373
 21
309.9572204851
 31
0.0
  0
LINE
  5
F2
330
1F
100
AcDbEntity
  8
0
  6
Continuous
 62
     7
370
    25
100
AcDbLine
 10
326.3999378547
 20
324.0538130677
 30
0.0
 11
326.3999378547
 21
312.9572204851
 31
0.0
  0
ARC
  5
F3
330
1F
100
AcDbEntity
  8
0
  6
Continuous
 62
     7
370
    25
100
AcDbCircle
 10
329.3999378547
 20
312.9572204851
 30
0.0
 40
3.000000000000057
100
AcDbArc
 50
180.0
 51
270.0
  0
LINE
  5
F4
330
1F
100
AcDbEntity
  8
0
  6
Continuous
 62
     7
370
    25
100
AcDbLine
 10
318.248234146
 20
312.9432104053
 30
0.0
 11
318.248234146
 21
311.4065269032
 31
0.0
  0
LINE
  5
F5
330
1F
100
AcDbEntity
  8
0
  6
Continuous
 62
     7
370
    25
100
AcDbLine
 10
304.448234146
 20
292.2055167764
 30
0.0
 11
304.448234146
 21
291.0055167764
 31
0.0
  0
LINE
  5
F6
330
1F
100
AcDbEntity
  8
0
  6
Continuous
 62
     7
370
    25
100
AcDbLine
 10
304.448234146
 20
292.2055167764
 30
0.0
 11
318.248234146
 21
292.2055167764
 31
0.0
  0
LINE
  5
F7
330
1F
100
AcDbEntity
  8
0
  6
Continuous
 62
     7
370
    25
100
AcDbLine
 10
318.248234146
 20
311.4065269032
 30
0.0
 11
318.248234146
 21
292.2055167764
 31
0.0
  0
LINE
  5
F8
330
1F
100
AcDbEntity
  8
0
  6
Continuous
 62
     7
370
    25
100
AcDbLine
 10
304.448234146
 20
291.0055167764
 30
0.0
 11
319.448234146
 21
291.0055167764
 31
0.0
  0
LINE
  5
F9
330
1F
100
AcDbEntity
  8
0
  6
Continuous
 62
     7
370
    25
100
AcDbLine
 10
429.648234146
 20
311.4065269032
 30
0.0
 11
429.648234146
 21
292.2055167764
 31
0.0
  0
LINE
  5
FA
330
1F
100
AcDbEntity
  8
0
  6
Continuous
 62
     7
370
    25
100
AcDbLine
 10
443.448234146
 20
292.2055167764
 30
0.0
 11
429.648234146
 21
292.2055167764
 31
0.0
  0
LINE
  5
FB
330
1F
100
AcDbEntity
  8
0
  6
Continuous
 62
     7
370
    25
100
AcDbLine
 10
443.448234146
 20
292.2055167764
 30
0.0
 11
443.448234146
 21
291.0055167764
 31
0.0
  0
LINE
  5
FC
330
1F
100
AcDbEntity
  8
0
  6
Continuous
 62
     7
370
    25
100
AcDbLine
 10
443.448234146
 20
291.0055167764
 30
0.0
 11
428.448234146
 21
291.0055167764
 31
0.0
  0
LINE
  5
FD
330
1F
100
AcDbEntity
  8
0
  6
Continuous
 62
     7
370
    25
100
AcDbLine
 10
429.648234146
 20
312.9432104053
 30
0.0
 11
429.648234146
 21
311.4065269032
 31
0.0
  0
LINE
  5
FE
330
1F
100
AcDbEntity
  8
0
  6
Continuous
 62
     7
370
    25
100
AcDbLine
 10
318.248234146
 20
321.7820655949
 30
0.0
 11
318.248234146
 21
312.9432104053
 31
0.0
  0
LINE
  5
FF
330
1F
100
AcDbEntity
  8
0
  6
Continuous
 62
     7
370
    25
100
AcDbLine
 10
429.648234146
 20
321.7820655949
 30
0.0
 11
429.648234146
 21
312.9432104053
 31
0.0
  0
LINE
  5
100
330
1F
100
AcDbEntity
  8
0
  6
Continuous
 62
     7
370
    25
100
AcDbLine
 10
318.248234146
 20
322.2055167764
 30
0.0
 11
319.448234146
 21
322.2055167764
 31
0.0
  0
LINE
  5
101
330
1F
100
AcDbEntity
  8
0
  6
Continuous
 62
     7
370
    25
100
AcDbLine
 10
318.248234146
 20
322.2055167764
 30
0.0
 11
318.248234146
 21
321.7820655949
 31
0.0
  0
LINE
  5
102
330
1F
100
AcDbEntity
  8
0
  6
Continuous
 62
     7
370
    25
100
AcDbLine
 10
429.648234146
 20
322.2055167764
 30
0.0
 11
428.448234146
 21
322.2055167764
 31
0.0
  0
LINE
  5
103
330
1F
100
AcDbEntity
  8
0
  6
Continuous
 62
     7
370
    25
100
AcDbLine
 10
429.648234146
 20
322.2055167764
 30
0.0
 11
429.648234146
 21
321.7820655949
 31
0.0
  0
ARC
  5
104
330
1F
100
AcDbEntity
  8
0
  6
PHANTOM
 62
     1
370
    18
100
AcDbCircle
 10
418.4965304373
 20
312.9572204851
 30
0.0
 40
4.0
100
AcDbArc
 50
270.0
 51
0.0
  0
LINE
  5
105
330
1F
100
AcDbEntity
  8
0
  6
PHANTOM
 62
     1
370
    18
100
AcDbLine
 10
422.4965304373
 20
324.0538130677
 30
0.0
 11
422.4965304373
 21
312.9572204851
 31
0.0
  0
ARC
  5
106
330
1F
100
AcDbEntity
  8
0
  6
PHANTOM
 62
     1
370
    18
100
AcDbCircle
 10
418.4965304373
 20
324.0538130677
 30
0.0
 40
4.0
100
AcDbArc
 50
0.0
 51
90.0
  0
LINE
  5
107
330
1F
100
AcDbEntity
  8
0
  6
PHANTOM
 62
     1
370
    18
100
AcDbLine
 10
329.3999378547
 20
328.0538130677
 30
0.0
 11
418.4965304373
 21
328.0538130677
 31
0.0
  0
ARC
  5
108
330
1F
100
AcDbEntity
  8
0
  6
PHANTOM
 62
     1
370
    18
100
AcDbCircle
 10
329.3999378547
 20
324.0538130677
 30
0.0
 40
4.000000000000057
100
AcDbArc
 50
90.0
 51
180.0
  0
LINE
  5
109
330
1F
100
AcDbEntity
  8
0
  6
PHANTOM
 62
     1
370
    18
100
AcDbLine
 10
325.3999378547
 20
312.9572204851
 30
0.0
 11
325.3999378547
 21
324.0538130677
 31
0.0
  0
ARC
  5
10A
330
1F
100
AcDbEntity
  8
0
  6
PHANTOM
 62
     1
370
    18
100
AcDbCircle
 10
329.3999378547
 20
312.9572204851
 30
0.0
 40
4.000000000000057
100
AcDbArc
 50
180.0
 51
270.0
  0
LINE
  5
10B
330
1F
100
AcDbEntity
  8
0
  6
PHANTOM
 62
     1
370
    18
100
AcDbLine
 10
418.4965304373
 20
308.9572204851
 30
0.0
 11
329.3999378547
 21
308.9572204851
 31
0.0
  0
CIRCLE
  5
10C
330
1F
100
AcDbEntity
  8
0
  6
PHANTOM
 62
     1
370
    18
100
AcDbCircle
 10
412.1981274989
 20
317.2554583017
 30
0.0
 40
1.794410327289938
  0
LINE
  5
10D
330
1F
100
AcDbEntity
  8
0
  6
PHANTOM
 62
     1
370
    18
100
AcDbLine
 10
422.4965304373
 20
324.0538130677
 30
0.0
 11
421.4965304373
 21
324.0538130677
 31
0.0
  0
LINE
  5
10E
330
1F
100
AcDbEntity
  8
0
  6
PHANTOM
 62
     1
370
    18
100
AcDbLine
 10
418.4965304373
 20
327.0538130677
 30
0.0
 11
418.4965304373
 21
328.0538130677
 31
0.0
  0
LINE
  5
10F
330
1F
100
AcDbEntity
  8
0
  6
PHANTOM
 62
     1
370
    18
100
AcDbLine
 10
422.4965304373
 20
312.9572204851
 30
0.0
 11
421.4965304373
 21
312.9572204851
 31
0.0
  0
LINE
  5
110
330
1F
100
AcDbEntity
  8
0
  6
PHANTOM
 62
     1
370
    18
100
AcDbLine
 10
329.3999378547
 20
327.0538130677
 30
0.0
 11
329.3999378547
 21
328.0538130677
 31
0.0
  0
LINE
  5
111
330
1F
100
AcDbEntity
  8
0
  6
PHANTOM
 62
     1
370
    18
100
AcDbLine
 10
418.4965304373
 20
308.9572204851
 30
0.0
 11
418.4965304373
 21
309.9572204851
 31
0.0
  0
LINE
  5
112
330
1F
100
AcDbEntity
  8
0
  6
PHANTOM
 62
     1
370
    18
100
AcDbLine
 10
326.3999378547
 20
324.0538130677
 30
0.0
 11
325.3999378547
 21
324.0538130677
 31
0.0
  0
LINE
  5
113
330
1F
100
AcDbEntity
  8
0
  6
PHANTOM
 62
     1
370
    18
100
AcDbLine
 10
329.3999378547
 20
308.9572204851
 30
0.0
 11
329.3999378547
 21
309.9572204851
 31
0.0
  0
LINE
  5
114
330
1F
100
AcDbEntity
  8
0
  6
PHANTOM
 62
     1
370
    18
100
AcDbLine
 10
326.3999378547
 20
312.9572204851
 30
0.0
 11
325.3999378547
 21
312.9572204851
 31
0.0
  0
LINE
  5
115
330
1F
100
AcDbEntity
  8
0
  6
PHANTOM
 62
     1
370
    18
100
AcDbLine
 10
318.248234146
 20
311.4065269032
 30
0.0
 11
319.448234146
 21
311.4065269032
 31
0.0
  0
LINE
  5
116
330
1F
100
AcDbEntity
  8
0
  6
PHANTOM
 62
     1
370
    18
100
AcDbLine
 10
318.248234146
 20
312.9432104053
 30
0.0
 11
319.448234146
 21
312.9432104053
 31
0.0
  0
LINE
  5
117
330
1F
100
AcDbEntity
  8
0
  6
PHANTOM
 62
     1
370
    18
100
AcDbLine
 10
429.648234146
 20
311.4065269032
 30
0.0
 11
428.448234146
 21
311.4065269032
 31
0.0
  0
LINE
  5
118
330
1F
100
AcDbEntity
  8
0
  6
PHANTOM
 62
     1
370
    18
100
AcDbLine
 10
429.648234146
 20
312.9432104053
 30
0.0
 11
428.448234146
 21
312.9432104053
 31
0.0
  0
LINE
  5
119
330
1F
100
AcDbEntity
  8
0
  6
PHANTOM
 62
     1
370
    18
100
AcDbLine
 10
318.248234146
 20
321.7820655949
 30
0.0
 11
319.448234146
 21
321.7820655949
 31
0.0
  0
LINE
  5
11A
330
1F
100
AcDbEntity
  8
0
  6
PHANTOM
 62
     1
370
    18
100
AcDbLine
 10
429.648234146
 20
321.7820655949
 30
0.0
 11
428.448234146
 21
321.7820655949
 31
0.0
  0
DIMENSION
  5
11B
330
1F
100
AcDbEntity
  8
SLD-0
100
AcDbDimension
  2
_D
 10
452.755677697
 20
292.2055167764
 30
0.0
 11
452.755677697
 21
303.993972147
 31
0.0
 70
   160
  1
2X <>
 71
     2
 42
-1.0
  3
SLDDIMSTYLE0
100
AcDbAlignedDimension
 13
443.448234146
 23
291.0055167764
 33
0.0
 14
443.448234146
 24
292.2055167764
 34
0.0
 50
90.0
100
AcDbRotatedDimension
  0
DIMENSION
  5
129
330
1F
100
AcDbEntity
  8
SLD-0
100
AcDbDimension
  2
_D_1
 10
319.448234146
 20
346.9113581011
 30
0.0
 11
372.8013461613
 21
346.9113581011
 31
0.0
 70
   160
  1
<>
 71
     2
 42
-1.0
  3
SLDDIMSTYLE1
100
AcDbAlignedDimension
 13
428.448234146
 23
333.4055167764
 33
0.0
 14
319.448234146
 24
333.4055167764
 34
0.0
 50
0.0
100
AcDbRotatedDimension
  0
DIMENSION
  5
135
330
1F
100
AcDbEntity
  8
SLD-0
100
AcDbDimension
  2
_D_2
 10
429.648234146
 20
358.7705257897
 30
0.0
 11
372.8013461613
 21
358.7705257897
 31
0.0
 70
   160
  1
<>
 71
     2
 42
-1.0
  3
SLDDIMSTYLE2
100
AcDbAlignedDimension
 13
318.248234146
 23
322.2055167764
 33
0.0
 14
429.648234146
 24
322.2055167764
 34
0.0
100
AcDbRotatedDimension
  0
DIMENSION
  5
141
330
1F
100
AcDbEntity
  8
SLD-0
100
AcDbDimension
  2
_D_3
 10
443.448234146
 20
371.4325958594
 30
0.0
 11
372.8013461613
 21
371.4325958594
 31
0.0
 70
   160
  1
<>
 71
     2
 42
-1.0
  3
SLDDIMSTYLE1
100
AcDbAlignedDimension
 13
304.448234146
 23
292.2055167764
 33
0.0
 14
443.448234146
 24
292.2055167764
 34
0.0
100
AcDbRotatedDimension
  0
MTEXT
  5
14C
330
1F
100
AcDbEntity
  8
SLD-0
100
AcDbMText
 10
396.5048488668
 20
277.1184107679
 30
0.0
 40
4.7625
 41
0.0
 71
     1
 72
     1
  1
INTAKE
  7
SLDTEXTSTYLE0
 73
     1
 44
1.0
  0
LEADER
  5
14E
330
1F
100
AcDbEntity
  8
SLD-0
100
AcDbLeader
  3
SLDDIMSTYLE3
 76
     3
 10
377.1347987004
 20
294.6470813398
 30
0.0
 10
391.4130434783
 20
274.7000588165
 30
0.0
 10
395.4130434783
 20
274.7000588165
 30
0.0
  0
LINE
  5
14F
330
1F
100
AcDbEntity
  8
0
  6
Continuous
 62
     7
370
    25
100
AcDbLine
 10
113.6865339244
 20
292.2055167764
 30
0.0
 11
163.6865339244
 21
292.2055167764
 31
0.0
  0
LINE
  5
150
330
1F
100
AcDbEntity
  8
0
  6
Continuous
 62
     7
370
    25
100
AcDbLine
 10
163.6865339244
 20
292.2055167764
 30
0.0
 11
163.6865339244
 21
291.0055167764
 31
0.0
  0
LINE
  5
151
330
1F
100
AcDbEntity
  8
0
  6
Continuous
 62
     7
370
    25
100
AcDbLine
 10
113.6865339244
 20
292.2055167764
 30
0.0
 11
113.6865339244
 21
291.0055167764
 31
0.0
  0
LINE
  5
152
330
1F
100
AcDbEntity
  8
0
  6
Continuous
 62
     7
370
    25
100
AcDbLine
 10
113.6865339244
 20
291.0055167764
 30
0.0
 11
163.6865339244
 21
291.0055167764
 31
0.0
  0
CIRCLE
  5
153
330
1F
100
AcDbEntity
  8
0
  6
Continuous
 62
     7
370
    25
100
AcDbCircle
 10
153.6865339244
 20
312.2055167764
 30
0.0
 40
2.25
  0
CIRCLE
  5
154
330
1F
100
AcDbEntity
  8
0
  6
Continuous
 62
     7
370
    25
100
AcDbCircle
 10
123.6865339244
 20
312.2055167764
 30
0.0
 40
2.25
  0
ARC
  5
155
330
1F
100
AcDbEntity
  8
0
  6
Continuous
 62
     7
370
    25
100
AcDbCircle
 10
116.6865339244
 20
311.4065269032
 30
0.0
 40
3.00000000000002
100
AcDbArc
 50
149.1876610852
 51
180.0
  0
ARC
  5
156
330
1F
100
AcDbEntity
  8
0
  6
Continuous
 62
     7
370
    25
100
AcDbCircle
 10
136.0106500635
 20
299.8814006373
 30
0.0
 40
25.50000000000014
100
AcDbArc
 50
120.8123389148
 51
149.1876610852
  0
ARC
  5
157
330
1F
100
AcDbEntity
  8
0
  6
Continuous
 62
     7
370
    25
100
AcDbCircle
 10
124.4855237976
 20
319.2055167764
 30
0.0
 40
3.000000000000005
100
AcDbArc
 50
90.0
 51
120.8123389148
  0
LINE
  5
158
330
1F
100
AcDbEntity
  8
0
  6
Continuous
 62
     7
370
    25
100
AcDbLine
 10
124.4855237976
 20
322.2055167764
 30
0.0
 11
152.8875440512
 21
322.2055167764
 31
0.0
  0
ARC
  5
159
330
1F
100
AcDbEntity
  8
0
  6
Continuous
 62
     7
370
    25
100
AcDbCircle
 10
152.8875440512
 20
319.2055167764
 30
0.0
 40
3.000000000000005
100
AcDbArc
 50
59.1876610852
 51
90.0
  0
ARC
  5
15A
330
1F
100
AcDbEntity
  8
0
  6
Continuous
 62
     7
370
    25
100
AcDbCircle
 10
141.3624177853
 20
299.8814006373
 30
0.0
 40
25.50000000000011
100
AcDbArc
 50
30.8123389148
 51
59.1876610852
  0
ARC
  5
15B
330
1F
100
AcDbEntity
  8
0
  6
Continuous
 62
     7
370
    25
100
AcDbCircle
 10
160.6865339244
 20
311.4065269032
 30
0.0
 40
3.00000000000002
100
AcDbArc
 50
0.0
 51
30.8123389148
  0
LINE
  5
15C
330
1F
100
AcDbEntity
  8
0
  6
Continuous
 62
     7
370
    25
100
AcDbLine
 10
163.6865339244
 20
311.4065269032
 30
0.0
 11
163.6865339244
 21
292.2055167764
 31
0.0
  0
LINE
  5
15D
330
1F
100
AcDbEntity
  8
0
  6
Continuous
 62
     7
370
    25
100
AcDbLine
 10
113.6865339244
 20
292.2055167764
 30
0.0
 11
113.6865339244
 21
311.4065269032
 31
0.0
  0
LINE
  5
15E
330
1F
100
AcDbEntity
  8
0
  6
Continuous
 62
     7
370
    25
100
AcDbLine
 10
30.7365339244
 20
333.4055167764
 30
0.0
 11
30.7365339244
 21
291.0055167764
 31
0.0
  0
LINE
  5
15F
330
1F
100
AcDbEntity
  8
0
  6
Continuous
 62
     7
370
    25
100
AcDbLine
 10
246.6365339244
 20
333.4055167764
 30
0.0
 11
30.7365339244
 21
333.4055167764
 31
0.0
  0
LINE
  5
160
330
1F
100
AcDbEntity
  8
0
  6
Continuous
 62
     7
370
    25
100
AcDbLine
 10
246.6365339244
 20
333.4055167764
 30
0.0
 11
246.6365339244
 21
291.0055167764
 31
0.0
  0
CIRCLE
  5
161
330
1F
100
AcDbEntity
  8
0
  6
Continuous
 62
     7
370
    25
100
AcDbCircle
 10
39.6365339244
 20
326.8055167764
 30
0.0
 40
2.0
  0
CIRCLE
  5
162
330
1F
100
AcDbEntity
  8
0
  6
Continuous
 62
     7
370
    25
100
AcDbCircle
 10
69.6365339244
 20
316.8055167764
 30
0.0
 40
2.0
  0
CIRCLE
  5
163
330
1F
100
AcDbEntity
  8
0
  6
Continuous
 62
     7
370
    25
100
AcDbCircle
 10
69.6365339244
 20
321.8055167764
 30
0.0
 40
2.0
  0
CIRCLE
  5
164
330
1F
100
AcDbEntity
  8
0
  6
Continuous
 62
     7
370
    25
100
AcDbCircle
 10
69.6365339244
 20
326.8055167764
 30
0.0
 40
2.0
  0
CIRCLE
  5
165
330
1F
100
AcDbEntity
  8
0
  6
Continuous
 62
     7
370
    25
100
AcDbCircle
 10
64.6365339244
 20
316.8055167764
 30
0.0
 40
2.0
  0
CIRCLE
  5
166
330
1F
100
AcDbEntity
  8
0
  6
Continuous
 62
     7
370
    25
100
AcDbCircle
 10
79.6365339244
 20
326.8055167764
 30
0.0
 40
2.0
  0
CIRCLE
  5
167
330
1F
100
AcDbEntity
  8
0
  6
Continuous
 62
     7
370
    25
100
AcDbCircle
 10
74.6365339244
 20
316.8055167764
 30
0.0
 40
2.0
  0
CIRCLE
  5
168
330
1F
100
AcDbEntity
  8
0
  6
Continuous
 62
     7
370
    25
100
AcDbCircle
 10
74.6365339244
 20
321.8055167764
 30
0.0
 40
2.0
  0
CIRCLE
  5
169
330
1F
100
AcDbEntity
  8
0
  6
Continuous
 62
     7
370
    25
100
AcDbCircle
 10
74.6365339244
 20
326.8055167764
 30
0.0
 40
2.0
  0
CIRCLE
  5
16A
330
1F
100
AcDbEntity
  8
0
  6
Continuous
 62
     7
370
    25
100
AcDbCircle
 10
79.6365339244
 20
321.8055167764
 30
0.0
 40
2.0
  0
CIRCLE
  5
16B
330
1F
100
AcDbEntity
  8
0
  6
Continuous
 62
     7
370
    25
100
AcDbCircle
 10
84.6365339244
 20
326.8055167764
 30
0.0
 40
2.0
  0
CIRCLE
  5
16C
330
1F
100
AcDbEntity
  8
0
  6
Continuous
 62
     7
370
    25
100
AcDbCircle
 10
59.6365339244
 20
326.8055167764
 30
0.0
 40
2.0
  0
CIRCLE
  5
16D
330
1F
100
AcDbEntity
  8
0
  6
Continuous
 62
     7
370
    25
100
AcDbCircle
 10
54.6365339244
 20
316.8055167764
 30
0.0
 40
2.0
  0
CIRCLE
  5
16E
330
1F
100
AcDbEntity
  8
0
  6
Continuous
 62
     7
370
    25
100
AcDbCircle
 10
54.6365339244
 20
321.8055167764
 30
0.0
 40
2.0
  0
CIRCLE
  5
16F
330
1F
100
AcDbEntity
  8
0
  6
Continuous
 62
     7
370
    25
100
AcDbCircle
 10
54.6365339244
 20
326.8055167764
 30
0.0
 40
2.0
  0
CIRCLE
  5
170
330
1F
100
AcDbEntity
  8
0
  6
Continuous
 62
     7
370
    25
100
AcDbCircle
 10
59.6365339244
 20
321.8055167764
 30
0.0
 40
2.0
  0
CIRCLE
  5
171
330
1F
100
AcDbEntity
  8
0
  6
Continuous
 62
     7
370
    25
100
AcDbCircle
 10
59.6365339244
 20
316.8055167764
 30
0.0
 40
2.0
  0
CIRCLE
  5
172
330
1F
100
AcDbEntity
  8
0
  6
Continuous
 62
     7
370
    25
100
AcDbCircle
 10
64.6365339244
 20
326.8055167764
 30
0.0
 40
2.0
  0
CIRCLE
  5
173
330
1F
100
AcDbEntity
  8
0
  6
Continuous
 62
     7
370
    25
100
AcDbCircle
 10
64.6365339244
 20
321.8055167764
 30
0.0
 40
2.0
  0
CIRCLE
  5
174
330
1F
100
AcDbEntity
  8
0
  6
Continuous
 62
     7
370
    25
100
AcDbCircle
 10
39.6365339244
 20
321.8055167764
 30
0.0
 40
2.0
  0
CIRCLE
  5
175
330
1F
100
AcDbEntity
  8
0
  6
Continuous
 62
     7
370
    25
100
AcDbCircle
 10
39.6365339244
 20
316.8055167764
 30
0.0
 40
2.0
  0
CIRCLE
  5
176
330
1F
100
AcDbEntity
  8
0
  6
Continuous
 62
     7
370
    25
100
AcDbCircle
 10
44.6365339244
 20
326.8055167764
 30
0.0
 40
2.0
  0
CIRCLE
  5
177
330
1F
100
AcDbEntity
  8
0
  6
Continuous
 62
     7
370
    25
100
AcDbCircle
 10
44.6365339244
 20
321.8055167764
 30
0.0
 40
2.0
  0
CIRCLE
  5
178
330
1F
100
AcDbEntity
  8
0
  6
Continuous
 62
     7
370
    25
100
AcDbCircle
 10
49.6365339244
 20
316.8055167764
 30
0.0
 40
2.0
  0
CIRCLE
  5
179
330
1F
100
AcDbEntity
  8
0
  6
Continuous
 62
     7
370
    25
100
AcDbCircle
 10
49.6365339244
 20
321.8055167764
 30
0.0
 40
2.0
  0
CIRCLE
  5
17A
330
1F
100
AcDbEntity
  8
0
  6
Continuous
 62
     7
370
    25
100
AcDbCircle
 10
49.6365339244
 20
326.8055167764
 30
0.0
 40
2.0
  0
CIRCLE
  5
17B
330
1F
100
AcDbEntity
  8
0
  6
Continuous
 62
     7
370
    25
100
AcDbCircle
 10
44.6365339244
 20
316.8055167764
 30
0.0
 40
2.0
  0
LINE
  5
17C
330
1F
100
AcDbEntity
  8
0
  6
Continuous
 62
     7
370
    25
100
AcDbLine
 10
246.6365339244
 20
291.0055167764
 30
0.0
 11
163.6865339244
 21
291.0055167764
 31
0.0
  0
LINE
  5
17D
330
1F
100
AcDbEntity
  8
0
  6
Continuous
 62
     7
370
    25
100
AcDbLine
 10
113.6865339244
 20
291.0055167764
 30
0.0
 11
30.7365339244
 21
291.0055167764
 31
0.0
  0
CIRCLE
  5
17E
330
1F
100
AcDbEntity
  8
0
  6
Continuous
 62
     7
370
    25
100
AcDbCircle
 10
123.6865339244
 20
312.2055167764
 30
0.0
 40
1.750000000000057
  0
CIRCLE
  5
17F
330
1F
100
AcDbEntity
  8
0
  6
Continuous
 62
     7
370
    25
100
AcDbCircle
 10
153.6865339244
 20
312.2055167764
 30
0.0
 40
1.750000000000057
  0
DIMENSION
  5
180
330
1F
100
AcDbEntity
  8
SLD-0
100
AcDbDimension
  2
_D_4
 10
262.8897089229
 20
322.2055167764
 30
0.0
 11
262.8897089229
 21
305.7180564075
 31
0.0
 70
   160
  1
<>
 71
     2
 42
-1.0
  3
SLDDIMSTYLE2
100
AcDbAlignedDimension
 13
246.6365339244
 23
291.0055167764
 33
0.0
 14
152.8875440512
 24
322.2055167764
 34
0.0
 50
90.0
100
AcDbRotatedDimension
  0
DIMENSION
  5
18B
330
1F
100
AcDbEntity
  8
SLD-0
100
AcDbDimension
  2
_D_5
 10
282.173273636
 20
333.4055167764
 30
0.0
 11
282.173273636
 21
310.2103800988
 31
0.0
 70
   160
  1
<>
 71
     2
 42
-1.0
  3
SLDDIMSTYLE2
100
AcDbAlignedDimension
 13
246.6365339244
 23
291.0055167764
 33
0.0
 14
246.6365339244
 24
333.4055167764
 34
0.0
 50
90.0
100
AcDbRotatedDimension
  0
MTEXT
  5
196
330
1F
100
AcDbEntity
  8
SLD-0
100
AcDbMText
 10
81.5565721627
 20
355.0645716797
 30
0.0
 40
4.7625
 41
0.0
 71
     1
 72
     1
  1
EXHAUST
  7
SLDTEXTSTYLE0
 73
     1
 44
1.0
  0
LEADER
  5
197
330
1F
100
AcDbEntity
  8
SLD-0
100
AcDbLeader
  3
SLDDIMSTYLE3
 76
     3
 10
60.0152816674
 20
328.7693268862
 30
0.0
 10
76.4130434783
 20
352.7435370774
 30
0.0
 10
80.4130434783
 20
352.7435370774
 30
0.0
  0
LINE
  5
198
330
1F
100
AcDbEntity
  8
0
  6
Continuous
 62
     7
370
    25
100
AcDbLine
 10
246.6365339244
 20
394.5137535912
 30
0.0
 11
30.7365339244
 21
394.5137535912
 31
0.0
  0
LINE
  5
199
330
1F
100
AcDbEntity
  8
0
  6
Continuous
 62
     7
370
    25
100
AcDbLine
 10
30.7365339244
 20
503.5137535912
 30
0.0
 11
30.7365339244
 21
394.5137535912
 31
0.0
  0
LINE
  5
19A
330
1F
100
AcDbEntity
  8
0
  6
Continuous
 62
     7
370
    25
100
AcDbLine
 10
246.6365339244
 20
503.5137535912
 30
0.0
 11
30.7365339244
 21
503.5137535912
 31
0.0
  0
LINE
  5
19B
330
1F
100
AcDbEntity
  8
0
  6
Continuous
 62
     7
370
    25
100
AcDbLine
 10
246.6365339244
 20
503.5137535912
 30
0.0
 11
246.6365339244
 21
394.5137535912
 31
0.0
  0
LINE
  5
19C
330
1F
100
AcDbEntity
  8
0
  6
Continuous
 62
     7
370
    25
100
AcDbLine
 10
152.8875440512
 20
504.7137535912
 30
0.0
 11
154.4242275533
 21
504.7137535912
 31
0.0
  0
LINE
  5
19D
330
1F
100
AcDbEntity
  8
0
  6
Continuous
 62
     7
370
    25
100
AcDbLine
 10
122.9488402955
 20
504.7137535912
 30
0.0
 11
124.4855237976
 21
504.7137535912
 31
0.0
  0
LINE
  5
19E
330
1F
100
AcDbEntity
  8
0
  6
Continuous
 62
     7
370
    25
100
AcDbLine
 10
124.4855237976
 20
504.7137535912
 30
0.0
 11
152.8875440512
 21
504.7137535912
 31
0.0
  0
LINE
  5
19F
330
1F
100
AcDbEntity
  8
0
  6
Continuous
 62
     7
370
    25
100
AcDbLine
 10
152.8875440512
 20
393.3137535912
 30
0.0
 11
154.4242275533
 21
393.3137535912
 31
0.0
  0
LINE
  5
1A0
330
1F
100
AcDbEntity
  8
0
  6
Continuous
 62
     7
370
    25
100
AcDbLine
 10
122.9488402955
 20
393.3137535912
 30
0.0
 11
124.4855237976
 21
393.3137535912
 31
0.0
  0
LINE
  5
1A1
330
1F
100
AcDbEntity
  8
0
  6
Continuous
 62
     7
370
    25
100
AcDbLine
 10
124.4855237976
 20
393.3137535912
 30
0.0
 11
152.8875440512
 21
393.3137535912
 31
0.0
  0
LINE
  5
1A2
330
1F
100
AcDbEntity
  8
0
  6
Continuous
 62
     7
370
    25
100
AcDbLine
 10
154.4242275533
 20
504.7137535912
 30
0.0
 11
163.2630827429
 21
504.7137535912
 31
0.0
  0
LINE
  5
1A3
330
1F
100
AcDbEntity
  8
0
  6
Continuous
 62
     7
370
    25
100
AcDbLine
 10
114.1099851058
 20
504.7137535912
 30
0.0
 11
122.9488402955
 21
504.7137535912
 31
0.0
  0
LINE
  5
1A4
330
1F
100
AcDbEntity
  8
0
  6
Continuous
 62
     7
370
    25
100
AcDbLine
 10
154.4242275533
 20
393.3137535912
 30
0.0
 11
163.2630827429
 21
393.3137535912
 31
0.0
  0
LINE
  5
1A5
330
1F
100
AcDbEntity
  8
0
  6
Continuous
 62
     7
370
    25
100
AcDbLine
 10
114.1099851058
 20
393.3137535912
 30
0.0
 11
122.9488402955
 21
393.3137535912
 31
0.0
  0
LINE
  5
1A6
330
1F
100
AcDbEntity
  8
0
  6
Continuous
 62
     7
370
    25
100
AcDbLine
 10
163.6865339244
 20
504.7137535912
 30
0.0
 11
163.6865339244
 21
503.5137535912
 31
0.0
  0
LINE
  5
1A7
330
1F
100
AcDbEntity
  8
0
  6
Continuous
 62
     7
370
    25
100
AcDbLine
 10
163.2630827429
 20
504.7137535912
 30
0.0
 11
163.6865339244
 21
504.7137535912
 31
0.0
  0
LINE
  5
1A8
330
1F
100
AcDbEntity
  8
0
  6
Continuous
 62
     7
370
    25
100
AcDbLine
 10
113.6865339244
 20
504.7137535912
 30
0.0
 11
113.6865339244
 21
503.5137535912
 31
0.0
  0
LINE
  5
1A9
330
1F
100
AcDbEntity
  8
0
  6
Continuous
 62
     7
370
    25
100
AcDbLine
 10
113.6865339244
 20
504.7137535912
 30
0.0
 11
114.1099851058
 21
504.7137535912
 31
0.0
  0
LINE
  5
1AA
330
1F
100
AcDbEntity
  8
0
  6
Continuous
 62
     7
370
    25
100
AcDbLine
 10
163.6865339244
 20
393.3137535912
 30
0.0
 11
163.6865339244
 21
394.5137535912
 31
0.0
  0
LINE
  5
1AB
330
1F
100
AcDbEntity
  8
0
  6
Continuous
 62
     7
370
    25
100
AcDbLine
 10
163.2630827429
 20
393.3137535912
 30
0.0
 11
163.6865339244
 21
393.3137535912
 31
0.0
  0
LINE
  5
1AC
330
1F
100
AcDbEntity
  8
0
  6
Continuous
 62
     7
370
    25
100
AcDbLine
 10
113.6865339244
 20
393.3137535912
 30
0.0
 11
113.6865339244
 21
394.5137535912
 31
0.0
  0
LINE
  5
1AD
330
1F
100
AcDbEntity
  8
0
  6
Continuous
 62
     7
370
    25
100
AcDbLine
 10
113.6865339244
 20
393.3137535912
 30
0.0
 11
114.1099851058
 21
393.3137535912
 31
0.0
  0
LINE
  5
1AE
330
1F
100
AcDbEntity
  8
0
  6
Continuous
 62
     7
370
    25
100
AcDbLine
 10
113.6865339244
 20
518.5137535912
 30
0.0
 11
163.6865339244
 21
518.5137535912
 31
0.0
  0
LINE
  5
1AF
330
1F
100
AcDbEntity
  8
0
  6
Continuous
 62
     7
370
    25
100
AcDbLine
 10
142.2920851998
 20
513.7637535912
 30
0.0
 11
146.4365339244
 21
513.7637535912
 31
0.0
  0
ARC
  5
1B0
330
1F
100
AcDbEntity
  8
0
  6
Continuous
 62
     7
370
    25
100
AcDbCircle
 10
138.6865339244
 20
511.5137535912
 30
0.0
 40
4.250000000000065
100
AcDbArc
 50
31.9657187508
 51
148.0342812492
  0
LINE
  5
1B1
330
1F
100
AcDbEntity
  8
0
  6
Continuous
 62
     7
370
    25
100
AcDbLine
 10
130.9365339244
 20
513.7637535912
 30
0.0
 11
135.0809826489
 21
513.7637535912
 31
0.0
  0
ARC
  5
1B2
330
1F
100
AcDbEntity
  8
0
  6
Continuous
 62
     7
370
    25
100
AcDbCircle
 10
130.9365339244
 20
511.5137535912
 30
0.0
 40
2.250000000000114
100
AcDbArc
 50
90.0
 51
270.0
  0
LINE
  5
1B3
330
1F
100
AcDbEntity
  8
0
  6
Continuous
 62
     7
370
    25
100
AcDbLine
 10
135.0809826489
 20
509.2637535912
 30
0.0
 11
130.9365339244
 21
509.2637535912
 31
0.0
  0
ARC
  5
1B4
330
1F
100
AcDbEntity
  8
0
  6
Continuous
 62
     7
370
    25
100
AcDbCircle
 10
138.6865339244
 20
511.5137535912
 30
0.0
 40
4.250000000000005
100
AcDbArc
 50
211.9657187508
 51
328.0342812492
  0
LINE
  5
1B5
330
1F
100
AcDbEntity
  8
0
  6
Continuous
 62
     7
370
    25
100
AcDbLine
 10
146.4365339244
 20
509.2637535912
 30
0.0
 11
142.2920851998
 21
509.2637535912
 31
0.0
  0
ARC
  5
1B6
330
1F
100
AcDbEntity
  8
0
  6
Continuous
 62
     7
370
    25
100
AcDbCircle
 10
146.4365339244
 20
511.5137535912
 30
0.0
 40
2.250000000000114
100
AcDbArc
 50
270.0
 51
90.0
  0
CIRCLE
  5
1B7
330
1F
100
AcDbEntity
  8
0
  6
Continuous
 62
     7
370
    25
100
AcDbCircle
 10
120.6865339244
 20
511.5137535912
 30
0.0
 40
2.75
  0
CIRCLE
  5
1B8
330
1F
100
AcDbEntity
  8
0
  6
Continuous
 62
     7
370
    25
100
AcDbCircle
 10
156.6865339244
 20
511.5137535912
 30
0.0
 40
2.75
  0
LINE
  5
1B9
330
1F
100
AcDbEntity
  8
0
  6
Continuous
 62
     7
370
    25
100
AcDbLine
 10
113.6865339244
 20
504.7137535912
 30
0.0
 11
113.6865339244
 21
518.5137535912
 31
0.0
  0
LINE
  5
1BA
330
1F
100
AcDbEntity
  8
0
  6
Continuous
 62
     7
370
    25
100
AcDbLine
 10
163.6865339244
 20
518.5137535912
 30
0.0
 11
163.6865339244
 21
504.7137535912
 31
0.0
  0
CIRCLE
  5
1BB
330
1F
100
AcDbEntity
  8
0
  6
Continuous
 62
     7
370
    25
100
AcDbCircle
 10
156.6865339244
 20
386.5137535912
 30
0.0
 40
2.75
  0
ARC
  5
1BC
330
1F
100
AcDbEntity
  8
0
  6
Continuous
 62
     7
370
    25
100
AcDbCircle
 10
138.6865339244
 20
386.5137535912
 30
0.0
 40
4.249999999999975
100
AcDbArc
 50
31.9657187508
 51
148.0342812492
  0
LINE
  5
1BD
330
1F
100
AcDbEntity
  8
0
  6
Continuous
 62
     7
370
    25
100
AcDbLine
 10
135.0809826489
 20
388.7637535912
 30
0.0
 11
130.9365339244
 21
388.7637535912
 31
0.0
  0
ARC
  5
1BE
330
1F
100
AcDbEntity
  8
0
  6
Continuous
 62
     7
370
    25
100
AcDbCircle
 10
130.9365339244
 20
386.5137535912
 30
0.0
 40
2.25
100
AcDbArc
 50
90.0
 51
270.0
  0
LINE
  5
1BF
330
1F
100
AcDbEntity
  8
0
  6
Continuous
 62
     7
370
    25
100
AcDbLine
 10
130.9365339244
 20
384.2637535912
 30
0.0
 11
135.0809826489
 21
384.2637535912
 31
0.0
  0
ARC
  5
1C0
330
1F
100
AcDbEntity
  8
0
  6
Continuous
 62
     7
370
    25
100
AcDbCircle
 10
138.6865339244
 20
386.5137535912
 30
0.0
 40
4.250000000000005
100
AcDbArc
 50
211.9657187508
 51
328.0342812492
  0
LINE
  5
1C1
330
1F
100
AcDbEntity
  8
0
  6
Continuous
 62
     7
370
    25
100
AcDbLine
 10
142.2920851998
 20
384.2637535912
 30
0.0
 11
146.4365339244
 21
384.2637535912
 31
0.0
  0
ARC
  5
1C2
330
1F
100
AcDbEntity
  8
0
  6
Continuous
 62
     7
370
    25
100
AcDbCircle
 10
146.4365339244
 20
386.5137535912
 30
0.0
 40
2.25
100
AcDbArc
 50
270.0
 51
90.0
  0
LINE
  5
1C3
330
1F
100
AcDbEntity
  8
0
  6
Continuous
 62
     7
370
    25
100
AcDbLine
 10
146.4365339244
 20
388.7637535912
 30
0.0
 11
142.2920851998
 21
388.7637535912
 31
0.0
  0
LINE
  5
1C4
330
1F
100
AcDbEntity
  8
0
  6
Continuous
 62
     7
370
    25
100
AcDbLine
 10
113.6865339244
 20
379.5137535912
 30
0.0
 11
163.6865339244
 21
379.5137535912
 31
0.0
  0
CIRCLE
  5
1C5
330
1F
100
AcDbEntity
  8
0
  6
Continuous
 62
     7
370
    25
100
AcDbCircle
 10
120.6865339244
 20
386.5137535912
 30
0.0
 40
2.75
  0
LINE
  5
1C6
330
1F
100
AcDbEntity
  8
0
  6
Continuous
 62
     7
370
    25
100
AcDbLine
 10
113.6865339244
 20
393.3137535912
 30
0.0
 11
113.6865339244
 21
379.5137535912
 31
0.0
  0
LINE
  5
1C7
330
1F
100
AcDbEntity
  8
0
  6
Continuous
 62
     7
370
    25
100
AcDbLine
 10
163.6865339244
 20
379.5137535912
 30
0.0
 11
163.6865339244
 21
393.3137535912
 31
0.0
  0
LINE
  5
1C8
330
1F
100
AcDbEntity
  8
0
  6
PHANTOM
 62
     1
370
    18
100
AcDbLine
 10
152.8875440512
 20
504.7137535912
 30
0.0
 11
152.8875440512
 21
503.5137535912
 31
0.0
  0
LINE
  5
1C9
330
1F
100
AcDbEntity
  8
0
  6
PHANTOM
 62
     1
370
    18
100
AcDbLine
 10
154.4242275533
 20
504.7137535912
 30
0.0
 11
154.4242275533
 21
503.5137535912
 31
0.0
  0
LINE
  5
1CA
330
1F
100
AcDbEntity
  8
0
  6
PHANTOM
 62
     1
370
    18
100
AcDbLine
 10
122.9488402955
 20
504.7137535912
 30
0.0
 11
122.9488402955
 21
503.5137535912
 31
0.0
  0
LINE
  5
1CB
330
1F
100
AcDbEntity
  8
0
  6
PHANTOM
 62
     1
370
    18
100
AcDbLine
 10
124.4855237976
 20
504.7137535912
 30
0.0
 11
124.4855237976
 21
503.5137535912
 31
0.0
  0
LINE
  5
1CC
330
1F
100
AcDbEntity
  8
0
  6
PHANTOM
 62
     1
370
    18
100
AcDbLine
 10
154.4242275533
 20
393.3137535912
 30
0.0
 11
154.4242275533
 21
394.5137535912
 31
0.0
  0
LINE
  5
1CD
330
1F
100
AcDbEntity
  8
0
  6
PHANTOM
 62
     1
370
    18
100
AcDbLine
 10
152.8875440512
 20
393.3137535912
 30
0.0
 11
152.8875440512
 21
394.5137535912
 31
0.0
  0
LINE
  5
1CE
330
1F
100
AcDbEntity
  8
0
  6
PHANTOM
 62
     1
370
    18
100
AcDbLine
 10
124.4855237976
 20
393.3137535912
 30
0.0
 11
124.4855237976
 21
394.5137535912
 31
0.0
  0
LINE
  5
1CF
330
1F
100
AcDbEntity
  8
0
  6
PHANTOM
 62
     1
370
    18
100
AcDbLine
 10
122.9488402955
 20
393.3137535912
 30
0.0
 11
122.9488402955
 21
394.5137535912
 31
0.0
  0
LINE
  5
1D0
330
1F
100
AcDbEntity
  8
0
  6
PHANTOM
 62
     1
370
    18
100
AcDbLine
 10
163.2630827429
 20
504.7137535912
 30
0.0
 11
163.2630827429
 21
503.5137535912
 31
0.0
  0
LINE
  5
1D1
330
1F
100
AcDbEntity
  8
0
  6
PHANTOM
 62
     1
370
    18
100
AcDbLine
 10
114.1099851058
 20
504.7137535912
 30
0.0
 11
114.1099851058
 21
503.5137535912
 31
0.0
  0
LINE
  5
1D2
330
1F
100
AcDbEntity
  8
0
  6
PHANTOM
 62
     1
370
    18
100
AcDbLine
 10
163.2630827429
 20
393.3137535912
 30
0.0
 11
163.2630827429
 21
394.5137535912
 31
0.0
  0
LINE
  5
1D3
330
1F
100
AcDbEntity
  8
0
  6
PHANTOM
 62
     1
370
    18
100
AcDbLine
 10
114.1099851058
 20
393.3137535912
 30
0.0
 11
114.1099851058
 21
394.5137535912
 31
0.0
  0
LINE
  5
1D4
330
1F
100
AcDbEntity
  8
0
  6
Continuous
 62
     7
370
    25
100
AcDbLine
 10
568.1251181719
 20
292.2055167764
 30
0.0
 11
568.1251181719
 21
291.0055167764
 31
0.0
  0
LINE
  5
1D5
330
1F
100
AcDbEntity
  8
0
  6
Continuous
 62
     7
370
    25
100
AcDbLine
 10
618.1251181719
 20
292.2055167764
 30
0.0
 11
568.1251181719
 21
292.2055167764
 31
0.0
  0
LINE
  5
1D6
330
1F
100
AcDbEntity
  8
0
  6
Continuous
 62
     7
370
    25
100
AcDbLine
 10
618.1251181719
 20
292.2055167764
 30
0.0
 11
618.1251181719
 21
291.0055167764
 31
0.0
  0
LINE
  5
1D7
330
1F
100
AcDbEntity
  8
0
  6
Continuous
 62
     7
370
    25
100
AcDbLine
 10
618.1251181719
 20
291.0055167764
 30
0.0
 11
568.1251181719
 21
291.0055167764
 31
0.0
  0
CIRCLE
  5
1D8
330
1F
100
AcDbEntity
  8
0
  6
Continuous
 62
     7
370
    25
100
AcDbCircle
 10
608.1251181719
 20
312.2055167764
 30
0.0
 40
2.25
  0
CIRCLE
  5
1D9
330
1F
100
AcDbEntity
  8
0
  6
Continuous
 62
     7
370
    25
100
AcDbCircle
 10
578.1251181719
 20
312.2055167764
 30
0.0
 40
2.25
  0
ARC
  5
1DA
330
1F
100
AcDbEntity
  8
0
  6
Continuous
 62
     7
370
    25
100
AcDbCircle
 10
571.1251181719
 20
311.4065269032
 30
0.0
 40
3.00000000000002
100
AcDbArc
 50
149.1876610852
 51
180.0
  0
ARC
  5
1DB
330
1F
100
AcDbEntity
  8
0
  6
Continuous
 62
     7
370
    25
100
AcDbCircle
 10
590.449234311
 20
299.8814006373
 30
0.0
 40
25.50000000000005
100
AcDbArc
 50
120.8123389148
 51
149.1876610852
  0
ARC
  5
1DC
330
1F
100
AcDbEntity
  8
0
  6
Continuous
 62
     7
370
    25
100
AcDbCircle
 10
578.9241080452
 20
319.2055167764
 30
0.0
 40
3.0
100
AcDbArc
 50
90.0
 51
120.8123389148
  0
LINE
  5
1DD
330
1F
100
AcDbEntity
  8
0
  6
Continuous
 62
     7
370
    25
100
AcDbLine
 10
607.3261282987
 20
322.2055167764
 30
0.0
 11
578.9241080452
 21
322.2055167764
 31
0.0
  0
ARC
  5
1DE
330
1F
100
AcDbEntity
  8
0
  6
Continuous
 62
     7
370
    25
100
AcDbCircle
 10
607.3261282987
 20
319.2055167764
 30
0.0
 40
3.00000000000002
100
AcDbArc
 50
59.1876610852
 51
90.0
  0
ARC
  5
1DF
330
1F
100
AcDbEntity
  8
0
  6
Continuous
 62
     7
370
    25
100
AcDbCircle
 10
595.8010020329
 20
299.8814006373
 30
0.0
 40
25.50000000000021
100
AcDbArc
 50
30.8123389148
 51
59.1876610852
  0
ARC
  5
1E0
330
1F
100
AcDbEntity
  8
0
  6
Continuous
 62
     7
370
    25
100
AcDbCircle
 10
615.1251181719
 20
311.4065269032
 30
0.0
 40
3.00000000000002
100
AcDbArc
 50
0.0
 51
30.8123389148
  0
LINE
  5
1E1
330
1F
100
AcDbEntity
  8
0
  6
Continuous
 62
     7
370
    25
100
AcDbLine
 10
568.1251181719
 20
311.4065269032
 30
0.0
 11
568.1251181719
 21
292.2055167764
 31
0.0
  0
LINE
  5
1E2
330
1F
100
AcDbEntity
  8
0
  6
Continuous
 62
     7
370
    25
100
AcDbLine
 10
618.1251181719
 20
292.2055167764
 30
0.0
 11
618.1251181719
 21
311.4065269032
 31
0.0
  0
LINE
  5
1E3
330
1F
100
AcDbEntity
  8
0
  6
Continuous
 62
     7
370
    25
100
AcDbLine
 10
485.1751181719
 20
291.0055167764
 30
0.0
 11
485.1751181719
 21
333.4055167764
 31
0.0
  0
LINE
  5
1E4
330
1F
100
AcDbEntity
  8
0
  6
Continuous
 62
     7
370
    25
100
AcDbLine
 10
485.1751181719
 20
333.4055167764
 30
0.0
 11
701.0751181719
 21
333.4055167764
 31
0.0
  0
LINE
  5
1E5
330
1F
100
AcDbEntity
  8
0
  6
Continuous
 62
     7
370
    25
100
AcDbLine
 10
701.0751181719
 20
291.0055167764
 30
0.0
 11
701.0751181719
 21
333.4055167764
 31
0.0
  0
CIRCLE
  5
1E6
330
1F
100
AcDbEntity
  8
0
  6
Continuous
 62
     7
370
    25
100
AcDbCircle
 10
692.1751181719
 20
326.8055167764
 30
0.0
 40
2.0
  0
CIRCLE
  5
1E7
330
1F
100
AcDbEntity
  8
0
  6
Continuous
 62
     7
370
    25
100
AcDbCircle
 10
687.1751181719
 20
326.8055167764
 30
0.0
 40
2.0
  0
CIRCLE
  5
1E8
330
1F
100
AcDbEntity
  8
0
  6
Continuous
 62
     7
370
    25
100
AcDbCircle
 10
682.1751181719
 20
326.8055167764
 30
0.0
 40
2.0
  0
CIRCLE
  5
1E9
330
1F
100
AcDbEntity
  8
0
  6
Continuous
 62
     7
370
    25
100
AcDbCircle
 10
677.1751181719
 20
326.8055167764
 30
0.0
 40
2.0
  0
CIRCLE
  5
1EA
330
1F
100
AcDbEntity
  8
0
  6
Continuous
 62
     7
370
    25
100
AcDbCircle
 10
672.1751181719
 20
326.8055167764
 30
0.0
 40
2.0
  0
CIRCLE
  5
1EB
330
1F
100
AcDbEntity
  8
0
  6
Continuous
 62
     7
370
    25
100
AcDbCircle
 10
667.1751181719
 20
326.8055167764
 30
0.0
 40
2.0
  0
CIRCLE
  5
1EC
330
1F
100
AcDbEntity
  8
0
  6
Continuous
 62
     7
370
    25
100
AcDbCircle
 10
662.1751181719
 20
326.8055167764
 30
0.0
 40
2.0
  0
CIRCLE
  5
1ED
330
1F
100
AcDbEntity
  8
0
  6
Continuous
 62
     7
370
    25
100
AcDbCircle
 10
657.1751181719
 20
326.8055167764
 30
0.0
 40
2.0
  0
CIRCLE
  5
1EE
330
1F
100
AcDbEntity
  8
0
  6
Continuous
 62
     7
370
    25
100
AcDbCircle
 10
652.1751181719
 20
326.8055167764
 30
0.0
 40
2.0
  0
CIRCLE
  5
1EF
330
1F
100
AcDbEntity
  8
0
  6
Continuous
 62
     7
370
    25
100
AcDbCircle
 10
647.1751181719
 20
326.8055167764
 30
0.0
 40
2.0
  0
CIRCLE
  5
1F0
330
1F
100
AcDbEntity
  8
0
  6
Continuous
 62
     7
370
    25
100
AcDbCircle
 10
692.1751181719
 20
321.8055167764
 30
0.0
 40
2.0
  0
CIRCLE
  5
1F1
330
1F
100
AcDbEntity
  8
0
  6
Continuous
 62
     7
370
    25
100
AcDbCircle
 10
687.1751181719
 20
321.8055167764
 30
0.0
 40
2.0
  0
CIRCLE
  5
1F2
330
1F
100
AcDbEntity
  8
0
  6
Continuous
 62
     7
370
    25
100
AcDbCircle
 10
682.1751181719
 20
321.8055167764
 30
0.0
 40
2.0
  0
CIRCLE
  5
1F3
330
1F
100
AcDbEntity
  8
0
  6
Continuous
 62
     7
370
    25
100
AcDbCircle
 10
677.1751181719
 20
321.8055167764
 30
0.0
 40
2.0
  0
CIRCLE
  5
1F4
330
1F
100
AcDbEntity
  8
0
  6
Continuous
 62
     7
370
    25
100
AcDbCircle
 10
672.1751181719
 20
321.8055167764
 30
0.0
 40
2.0
  0
CIRCLE
  5
1F5
330
1F
100
AcDbEntity
  8
0
  6
Continuous
 62
     7
370
    25
100
AcDbCircle
 10
667.1751181719
 20
321.8055167764
 30
0.0
 40
2.0
  0
CIRCLE
  5
1F6
330
1F
100
AcDbEntity
  8
0
  6
Continuous
 62
     7
370
    25
100
AcDbCircle
 10
662.1751181719
 20
321.8055167764
 30
0.0
 40
2.0
  0
CIRCLE
  5
1F7
330
1F
100
AcDbEntity
  8
0
  6
Continuous
 62
     7
370
    25
100
AcDbCircle
 10
657.1751181719
 20
321.8055167764
 30
0.0
 40
2.0
  0
CIRCLE
  5
1F8
330
1F
100
AcDbEntity
  8
0
  6
Continuous
 62
     7
370
    25
100
AcDbCircle
 10
652.1751181719
 20
321.8055167764
 30
0.0
 40
2.0
  0
CIRCLE
  5
1F9
330
1F
100
AcDbEntity
  8
0
  6
Continuous
 62
     7
370
    25
100
AcDbCircle
 10
692.1751181719
 20
316.8055167764
 30
0.0
 40
2.0
  0
CIRCLE
  5
1FA
330
1F
100
AcDbEntity
  8
0
  6
Continuous
 62
     7
370
    25
100
AcDbCircle
 10
687.1751181719
 20
316.8055167764
 30
0.0
 40
2.0
  0
CIRCLE
  5
1FB
330
1F
100
AcDbEntity
  8
0
  6
Continuous
 62
     7
370
    25
100
AcDbCircle
 10
682.1751181719
 20
316.8055167764
 30
0.0
 40
2.0
  0
CIRCLE
  5
1FC
330
1F
100
AcDbEntity
  8
0
  6
Continuous
 62
     7
370
    25
100
AcDbCircle
 10
677.1751181719
 20
316.8055167764
 30
0.0
 40
2.0
  0
CIRCLE
  5
1FD
330
1F
100
AcDbEntity
  8
0
  6
Continuous
 62
     7
370
    25
100
AcDbCircle
 10
672.1751181719
 20
316.8055167764
 30
0.0
 40
2.0
  0
CIRCLE
  5
1FE
330
1F
100
AcDbEntity
  8
0
  6
Continuous
 62
     7
370
    25
100
AcDbCircle
 10
667.1751181719
 20
316.8055167764
 30
0.0
 40
2.0
  0
CIRCLE
  5
1FF
330
1F
100
AcDbEntity
  8
0
  6
Continuous
 62
     7
370
    25
100
AcDbCircle
 10
662.1751181719
 20
316.8055167764
 30
0.0
 40
2.0
  0
CIRCLE
  5
200
330
1F
100
AcDbEntity
  8
0
  6
Continuous
 62
     7
370
    25
100
AcDbCircle
 10
657.1751181719
 20
316.8055167764
 30
0.0
 40
2.0
  0
LINE
  5
201
330
1F
100
AcDbEntity
  8
0
  6
Continuous
 62
     7
370
    25
100
AcDbLine
 10
485.1751181719
 20
291.0055167764
 30
0.0
 11
568.1251181719
 21
291.0055167764
 31
0.0
  0
LINE
  5
202
330
1F
100
AcDbEntity
  8
0
  6
Continuous
 62
     7
370
    25
100
AcDbLine
 10
618.1251181719
 20
291.0055167764
 30
0.0
 11
701.0751181719
 21
291.0055167764
 31
0.0
  0
CIRCLE
  5
203
330
1F
100
AcDbEntity
  8
0
  6
Continuous
 62
     7
370
    25
100
AcDbCircle
 10
608.1251181719
 20
312.2055167764
 30
0.0
 40
1.750000000000057
  0
CIRCLE
  5
204
330
1F
100
AcDbEntity
  8
0
  6
Continuous
 62
     7
370
    25
100
AcDbCircle
 10
578.1251181719
 20
312.2055167764
 30
0.0
 40
1.750000000000057
  0
MTEXT
  5
205
330
1F
100
AcDbEntity
  8
SLD-0
100
AcDbMText
 10
623.4138363813
 20
354.5877151067
 30
0.0
 40
4.7625
 41
0.0
 71
     1
 72
     1
  1
EXHAUST
  7
SLDTEXTSTYLE0
 73
     1
 44
1.0
  0
LEADER
  5
206
330
1F
100
AcDbEntity
  8
SLD-0
100
AcDbLeader
  3
SLDDIMSTYLE3
 76
     3
 10
671.1740826425
 20
328.5369693079
 30
0.0
 10
654.7044265108
 20
352.3087544687
 30
0.0
 10
650.7044265108
 20
352.3087544687
 30
0.0
  0
LINE
  5
207
330
1F
100
AcDbEntity
  8
0
  6
Continuous
 62
     7
370
    25
100
AcDbLine
 10
800.9275507086
 20
297.2855167764
 30
0.0
 11
818.5875507086
 21
297.2855167764
 31
0.0
  0
LINE
  5
208
330
1F
100
AcDbEntity
  8
0
  6
Continuous
 62
     7
370
    25
100
AcDbLine
 10
818.5875507086
 20
297.2855167764
 30
0.0
 11
818.5875507086
 21
324.4755167764
 31
0.0
  0
LINE
  5
209
330
1F
100
AcDbEntity
  8
0
  6
Continuous
 62
     7
370
    25
100
AcDbLine
 10
818.5875507086
 20
324.4755167764
 30
0.0
 11
800.9275507086
 21
324.4755167764
 31
0.0
  0
LINE
  5
20A
330
1F
100
AcDbEntity
  8
0
  6
Continuous
 62
     7
370
    25
100
AcDbLine
 10
800.9275507086
 20
324.4755167764
 30
0.0
 11
800.9275507086
 21
297.2855167764
 31
0.0
  0
LINE
  5
20B
330
1F
100
AcDbEntity
  8
0
  6
Continuous
 62
     7
370
    25
100
AcDbLine
 10
821.8725507086
 20
317.5055167764
 30
0.0
 11
831.0725507086
 21
317.5055167764
 31
0.0
  0
LINE
  5
20C
330
1F
100
AcDbEntity
  8
0
  6
Continuous
 62
     7
370
    25
100
AcDbLine
 10
831.0725507086
 20
317.5055167764
 30
0.0
 11
831.0725507086
 21
326.3055167764
 31
0.0
  0
LINE
  5
20D
330
1F
100
AcDbEntity
  8
0
  6
Continuous
 62
     7
370
    25
100
AcDbLine
 10
831.0725507086
 20
326.3055167764
 30
0.0
 11
821.8725507086
 21
326.3055167764
 31
0.0
  0
LINE
  5
20E
330
1F
100
AcDbEntity
  8
0
  6
Continuous
 62
     7
370
    25
100
AcDbLine
 10
821.8725507086
 20
326.3055167764
 30
0.0
 11
821.8725507086
 21
317.5055167764
 31
0.0
  0
LINE
  5
20F
330
1F
100
AcDbEntity
  8
0
  6
Continuous
 62
     7
370
    25
100
AcDbLine
 10
821.8725507086
 20
297.1055167764
 30
0.0
 11
831.0220859518
 21
297.1055167764
 31
0.0
  0
LINE
  5
210
330
1F
100
AcDbEntity
  8
0
  6
Continuous
 62
     7
370
    25
100
AcDbLine
 10
831.0220859518
 20
297.1055167764
 30
0.0
 11
831.0220859518
 21
305.3055167764
 31
0.0
  0
LINE
  5
211
330
1F
100
AcDbEntity
  8
0
  6
Continuous
 62
     7
370
    25
100
AcDbLine
 10
831.0220859518
 20
305.3055167764
 30
0.0
 11
821.8725507086
 21
305.3055167764
 31
0.0
  0
LINE
  5
212
330
1F
100
AcDbEntity
  8
0
  6
Continuous
 62
     7
370
    25
100
AcDbLine
 10
821.8725507086
 20
305.3055167764
 30
0.0
 11
821.8725507086
 21
297.1055167764
 31
0.0
  0
LINE
  5
213
330
1F
100
AcDbEntity
  8
0
  6
Continuous
 62
     7
370
    25
100
AcDbLine
 10
755.4075507086
 20
297.8255167764
 30
0.0
 11
780.3075507086
 21
297.8255167764
 31
0.0
  0
LINE
  5
214
330
1F
100
AcDbEntity
  8
0
  6
Continuous
 62
     7
370
    25
100
AcDbLine
 10
780.3075507086
 20
297.8255167764
 30
0.0
 11
780.3075507086
 21
310.8255167764
 31
0.0
  0
LINE
  5
215
330
1F
100
AcDbEntity
  8
0
  6
Continuous
 62
     7
370
    25
100
AcDbLine
 10
780.3075507086
 20
310.8255167764
 30
0.0
 11
755.4075507086
 21
310.8255167764
 31
0.0
  0
LINE
  5
216
330
1F
100
AcDbEntity
  8
0
  6
Continuous
 62
     7
370
    25
100
AcDbLine
 10
755.4075507086
 20
310.8255167764
 30
0.0
 11
755.4075507086
 21
297.8255167764
 31
0.0
  0
LINE
  5
217
330
1F
100
AcDbEntity
  8
0
  6
Continuous
 62
     7
370
    25
100
AcDbLine
 10
730.0575507086
 20
291.0055167764
 30
0.0
 11
730.0575507086
 21
333.4055167764
 31
0.0
  0
LINE
  5
218
330
1F
100
AcDbEntity
  8
0
  6
Continuous
 62
     7
370
    25
100
AcDbLine
 10
797.2575507086
 20
291.0055167764
 30
0.0
 11
797.2575507086
 21
295.5055167764
 31
0.0
  0
LINE
  5
219
330
1F
100
AcDbEntity
  8
0
  6
Continuous
 62
     7
370
    25
100
AcDbLine
 10
797.2575507086
 20
295.5055167764
 30
0.0
 11
791.2575507086
 21
295.5055167764
 31
0.0
  0
LINE
  5
21A
330
1F
100
AcDbEntity
  8
0
  6
Continuous
 62
     7
370
    25
100
AcDbLine
 10
791.2575507086
 20
295.5055167764
 30
0.0
 11
791.2575507086
 21
291.0055167764
 31
0.0
  0
CIRCLE
  5
21B
330
1F
100
AcDbEntity
  8
0
  6
Continuous
 62
     7
370
    25
100
AcDbCircle
 10
794.7575507086
 20
301.6555167764
 30
0.0
 40
1.600000000000023
  0
LINE
  5
21C
330
1F
100
AcDbEntity
  8
0
  6
Continuous
 62
     7
370
    25
100
AcDbLine
 10
732.8575507086
 20
329.4555167764
 30
0.0
 11
732.8575507086
 21
325.9555167764
 31
0.0
  0
LINE
  5
21D
330
1F
100
AcDbEntity
  8
0
  6
Continuous
 62
     7
370
    25
100
AcDbLine
 10
732.8575507086
 20
325.9555167764
 30
0.0
 11
736.3575507086
 21
325.9555167764
 31
0.0
  0
LINE
  5
21E
330
1F
100
AcDbEntity
  8
0
  6
Continuous
 62
     7
370
    25
100
AcDbLine
 10
736.3575507086
 20
325.9555167764
 30
0.0
 11
736.3575507086
 21
329.4555167764
 31
0.0
  0
LINE
  5
21F
330
1F
100
AcDbEntity
  8
0
  6
Continuous
 62
     7
370
    25
100
AcDbLine
 10
736.3575507086
 20
329.4555167764
 30
0.0
 11
732.8575507086
 21
329.4555167764
 31
0.0
  0
LINE
  5
220
330
1F
100
AcDbEntity
  8
0
  6
Continuous
 62
     7
370
    25
100
AcDbLine
 10
737.7575507086
 20
329.4555167764
 30
0.0
 11
737.7575507086
 21
325.9555167764
 31
0.0
  0
LINE
  5
221
330
1F
100
AcDbEntity
  8
0
  6
Continuous
 62
     7
370
    25
100
AcDbLine
 10
737.7575507086
 20
325.9555167764
 30
0.0
 11
741.2575507086
 21
325.9555167764
 31
0.0
  0
LINE
  5
222
330
1F
100
AcDbEntity
  8
0
  6
Continuous
 62
     7
370
    25
100
AcDbLine
 10
741.2575507086
 20
325.9555167764
 30
0.0
 11
741.2575507086
 21
329.4555167764
 31
0.0
  0
LINE
  5
223
330
1F
100
AcDbEntity
  8
0
  6
Continuous
 62
     7
370
    25
100
AcDbLine
 10
741.2575507086
 20
329.4555167764
 30
0.0
 11
737.7575507086
 21
329.4555167764
 31
0.0
  0
LINE
  5
224
330
1F
100
AcDbEntity
  8
0
  6
Continuous
 62
     7
370
    25
100
AcDbLine
 10
742.6575507086
 20
329.4555167764
 30
0.0
 11
742.6575507086
 21
325.9555167764
 31
0.0
  0
LINE
  5
225
330
1F
100
AcDbEntity
  8
0
  6
Continuous
 62
     7
370
    25
100
AcDbLine
 10
742.6575507086
 20
325.9555167764
 30
0.0
 11
746.1575507086
 21
325.9555167764
 31
0.0
  0
LINE
  5
226
330
1F
100
AcDbEntity
  8
0
  6
Continuous
 62
     7
370
    25
100
AcDbLine
 10
746.1575507086
 20
325.9555167764
 30
0.0
 11
746.1575507086
 21
329.4555167764
 31
0.0
  0
LINE
  5
227
330
1F
100
AcDbEntity
  8
0
  6
Continuous
 62
     7
370
    25
100
AcDbLine
 10
746.1575507086
 20
329.4555167764
 30
0.0
 11
742.6575507086
 21
329.4555167764
 31
0.0
  0
LINE
  5
228
330
1F
100
AcDbEntity
  8
0
  6
Continuous
 62
     7
370
    25
100
AcDbLine
 10
747.5575507086
 20
329.4555167764
 30
0.0
 11
747.5575507086
 21
325.9555167764
 31
0.0
  0
LINE
  5
229
330
1F
100
AcDbEntity
  8
0
  6
Continuous
 62
     7
370
    25
100
AcDbLine
 10
747.5575507086
 20
325.9555167764
 30
0.0
 11
751.0575507086
 21
325.9555167764
 31
0.0
  0
LINE
  5
22A
330
1F
100
AcDbEntity
  8
0
  6
Continuous
 62
     7
370
    25
100
AcDbLine
 10
751.0575507086
 20
325.9555167764
 30
0.0
 11
751.0575507086
 21
329.4555167764
 31
0.0
  0
LINE
  5
22B
330
1F
100
AcDbEntity
  8
0
  6
Continuous
 62
     7
370
    25
100
AcDbLine
 10
751.0575507086
 20
329.4555167764
 30
0.0
 11
747.5575507086
 21
329.4555167764
 31
0.0
  0
LINE
  5
22C
330
1F
100
AcDbEntity
  8
0
  6
Continuous
 62
     7
370
    25
100
AcDbLine
 10
752.4575507086
 20
329.4555167764
 30
0.0
 11
752.4575507086
 21
325.9555167764
 31
0.0
  0
LINE
  5
22D
330
1F
100
AcDbEntity
  8
0
  6
Continuous
 62
     7
370
    25
100
AcDbLine
 10
752.4575507086
 20
325.9555167764
 30
0.0
 11
755.9575507086
 21
325.9555167764
 31
0.0
  0
LINE
  5
22E
330
1F
100
AcDbEntity
  8
0
  6
Continuous
 62
     7
370
    25
100
AcDbLine
 10
755.9575507086
 20
325.9555167764
 30
0.0
 11
755.9575507086
 21
329.4555167764
 31
0.0
  0
LINE
  5
22F
330
1F
100
AcDbEntity
  8
0
  6
Continuous
 62
     7
370
    25
100
AcDbLine
 10
755.9575507086
 20
329.4555167764
 30
0.0
 11
752.4575507086
 21
329.4555167764
 31
0.0
  0
LINE
  5
230
330
1F
100
AcDbEntity
  8
0
  6
Continuous
 62
     7
370
    25
100
AcDbLine
 10
757.3575507086
 20
329.4555167764
 30
0.0
 11
757.3575507086
 21
325.9555167764
 31
0.0
  0
LINE
  5
231
330
1F
100
AcDbEntity
  8
0
  6
Continuous
 62
     7
370
    25
100
AcDbLine
 10
757.3575507086
 20
325.9555167764
 30
0.0
 11
760.8575507086
 21
325.9555167764
 31
0.0
  0
LINE
  5
232
330
1F
100
AcDbEntity
  8
0
  6
Continuous
 62
     7
370
    25
100
AcDbLine
 10
760.8575507086
 20
325.9555167764
 30
0.0
 11
760.8575507086
 21
329.4555167764
 31
0.0
  0
LINE
  5
233
330
1F
100
AcDbEntity
  8
0
  6
Continuous
 62
     7
370
    25
100
AcDbLine
 10
760.8575507086
 20
329.4555167764
 30
0.0
 11
757.3575507086
 21
329.4555167764
 31
0.0
  0
LINE
  5
234
330
1F
100
AcDbEntity
  8
0
  6
Continuous
 62
     7
370
    25
100
AcDbLine
 10
762.2575507086
 20
329.4555167764
 30
0.0
 11
762.2575507086
 21
325.9555167764
 31
0.0
  0
LINE
  5
235
330
1F
100
AcDbEntity
  8
0
  6
Continuous
 62
     7
370
    25
100
AcDbLine
 10
762.2575507086
 20
325.9555167764
 30
0.0
 11
765.7575507086
 21
325.9555167764
 31
0.0
  0
LINE
  5
236
330
1F
100
AcDbEntity
  8
0
  6
Continuous
 62
     7
370
    25
100
AcDbLine
 10
765.7575507086
 20
325.9555167764
 30
0.0
 11
765.7575507086
 21
329.4555167764
 31
0.0
  0
LINE
  5
237
330
1F
100
AcDbEntity
  8
0
  6
Continuous
 62
     7
370
    25
100
AcDbLine
 10
765.7575507086
 20
329.4555167764
 30
0.0
 11
762.2575507086
 21
329.4555167764
 31
0.0
  0
LINE
  5
238
330
1F
100
AcDbEntity
  8
0
  6
Continuous
 62
     7
370
    25
100
AcDbLine
 10
767.1575507086
 20
329.4555167764
 30
0.0
 11
767.1575507086
 21
325.9555167764
 31
0.0
  0
LINE
  5
239
330
1F
100
AcDbEntity
  8
0
  6
Continuous
 62
     7
370
    25
100
AcDbLine
 10
767.1575507086
 20
325.9555167764
 30
0.0
 11
770.6575507086
 21
325.9555167764
 31
0.0
  0
LINE
  5
23A
330
1F
100
AcDbEntity
  8
0
  6
Continuous
 62
     7
370
    25
100
AcDbLine
 10
770.6575507086
 20
325.9555167764
 30
0.0
 11
770.6575507086
 21
329.4555167764
 31
0.0
  0
LINE
  5
23B
330
1F
100
AcDbEntity
  8
0
  6
Continuous
 62
     7
370
    25
100
AcDbLine
 10
770.6575507086
 20
329.4555167764
 30
0.0
 11
767.1575507086
 21
329.4555167764
 31
0.0
  0
LINE
  5
23C
330
1F
100
AcDbEntity
  8
0
  6
Continuous
 62
     7
370
    25
100
AcDbLine
 10
772.0575507086
 20
329.4555167764
 30
0.0
 11
772.0575507086
 21
325.9555167764
 31
0.0
  0
LINE
  5
23D
330
1F
100
AcDbEntity
  8
0
  6
Continuous
 62
     7
370
    25
100
AcDbLine
 10
772.0575507086
 20
325.9555167764
 30
0.0
 11
775.5575507086
 21
325.9555167764
 31
0.0
  0
LINE
  5
23E
330
1F
100
AcDbEntity
  8
0
  6
Continuous
 62
     7
370
    25
100
AcDbLine
 10
775.5575507086
 20
325.9555167764
 30
0.0
 11
775.5575507086
 21
329.4555167764
 31
0.0
  0
LINE
  5
23F
330
1F
100
AcDbEntity
  8
0
  6
Continuous
 62
     7
370
    25
100
AcDbLine
 10
775.5575507086
 20
329.4555167764
 30
0.0
 11
772.0575507086
 21
329.4555167764
 31
0.0
  0
LINE
  5
240
330
1F
100
AcDbEntity
  8
0
  6
Continuous
 62
     7
370
    25
100
AcDbLine
 10
776.9575507086
 20
329.4555167764
 30
0.0
 11
776.9575507086
 21
325.9555167764
 31
0.0
  0
LINE
  5
241
330
1F
100
AcDbEntity
  8
0
  6
Continuous
 62
     7
370
    25
100
AcDbLine
 10
776.9575507086
 20
325.9555167764
 30
0.0
 11
780.4575507086
 21
325.9555167764
 31
0.0
  0
LINE
  5
242
330
1F
100
AcDbEntity
  8
0
  6
Continuous
 62
     7
370
    25
100
AcDbLine
 10
780.4575507086
 20
325.9555167764
 30
0.0
 11
780.4575507086
 21
329.4555167764
 31
0.0
  0
LINE
  5
243
330
1F
100
AcDbEntity
  8
0
  6
Continuous
 62
     7
370
    25
100
AcDbLine
 10
780.4575507086
 20
329.4555167764
 30
0.0
 11
776.9575507086
 21
329.4555167764
 31
0.0
  0
LINE
  5
244
330
1F
100
AcDbEntity
  8
0
  6
Continuous
 62
     7
370
    25
100
AcDbLine
 10
781.8575507086
 20
329.4555167764
 30
0.0
 11
781.8575507086
 21
325.9555167764
 31
0.0
  0
LINE
  5
245
330
1F
100
AcDbEntity
  8
0
  6
Continuous
 62
     7
370
    25
100
AcDbLine
 10
781.8575507086
 20
325.9555167764
 30
0.0
 11
785.3575507086
 21
325.9555167764
 31
0.0
  0
LINE
  5
246
330
1F
100
AcDbEntity
  8
0
  6
Continuous
 62
     7
370
    25
100
AcDbLine
 10
785.3575507086
 20
325.9555167764
 30
0.0
 11
785.3575507086
 21
329.4555167764
 31
0.0
  0
LINE
  5
247
330
1F
100
AcDbEntity
  8
0
  6
Continuous
 62
     7
370
    25
100
AcDbLine
 10
785.3575507086
 20
329.4555167764
 30
0.0
 11
781.8575507086
 21
329.4555167764
 31
0.0
  0
LINE
  5
248
330
1F
100
AcDbEntity
  8
0
  6
Continuous
 62
     7
370
    25
100
AcDbLine
 10
732.8575507086
 20
324.7555167764
 30
0.0
 11
732.8575507086
 21
321.2555167764
 31
0.0
  0
LINE
  5
249
330
1F
100
AcDbEntity
  8
0
  6
Continuous
 62
     7
370
    25
100
AcDbLine
 10
732.8575507086
 20
321.2555167764
 30
0.0
 11
736.3575507086
 21
321.2555167764
 31
0.0
  0
LINE
  5
24A
330
1F
100
AcDbEntity
  8
0
  6
Continuous
 62
     7
370
    25
100
AcDbLine
 10
736.3575507086
 20
321.2555167764
 30
0.0
 11
736.3575507086
 21
324.7555167764
 31
0.0
  0
LINE
  5
24B
330
1F
100
AcDbEntity
  8
0
  6
Continuous
 62
     7
370
    25
100
AcDbLine
 10
736.3575507086
 20
324.7555167764
 30
0.0
 11
732.8575507086
 21
324.7555167764
 31
0.0
  0
LINE
  5
24C
330
1F
100
AcDbEntity
  8
0
  6
Continuous
 62
     7
370
    25
100
AcDbLine
 10
737.7575507086
 20
324.7555167764
 30
0.0
 11
737.7575507086
 21
321.2555167764
 31
0.0
  0
LINE
  5
24D
330
1F
100
AcDbEntity
  8
0
  6
Continuous
 62
     7
370
    25
100
AcDbLine
 10
737.7575507086
 20
321.2555167764
 30
0.0
 11
741.2575507086
 21
321.2555167764
 31
0.0
  0
LINE
  5
24E
330
1F
100
AcDbEntity
  8
0
  6
Continuous
 62
     7
370
    25
100
AcDbLine
 10
741.2575507086
 20
321.2555167764
 30
0.0
 11
741.2575507086
 21
324.7555167764
 31
0.0
  0
LINE
  5
24F
330
1F
100
AcDbEntity
  8
0
  6
Continuous
 62
     7
370
    25
100
AcDbLine
 10
741.2575507086
 20
324.7555167764
 30
0.0
 11
737.7575507086
 21
324.7555167764
 31
0.0
  0
LINE
  5
250
330
1F
100
AcDbEntity
  8
0
  6
Continuous
 62
     7
370
    25
100
AcDbLine
 10
742.6575507086
 20
324.7555167764
 30
0.0
 11
742.6575507086
 21
321.2555167764
 31
0.0
  0
LINE
  5
251
330
1F
100
AcDbEntity
  8
0
  6
Continuous
 62
     7
370
    25
100
AcDbLine
 10
742.6575507086
 20
321.2555167764
 30
0.0
 11
746.1575507086
 21
321.2555167764
 31
0.0
  0
LINE
  5
252
330
1F
100
AcDbEntity
  8
0
  6
Continuous
 62
     7
370
    25
100
AcDbLine
 10
746.1575507086
 20
321.2555167764
 30
0.0
 11
746.1575507086
 21
324.7555167764
 31
0.0
  0
LINE
  5
253
330
1F
100
AcDbEntity
  8
0
  6
Continuous
 62
     7
370
    25
100
AcDbLine
 10
746.1575507086
 20
324.7555167764
 30
0.0
 11
742.6575507086
 21
324.7555167764
 31
0.0
  0
LINE
  5
254
330
1F
100
AcDbEntity
  8
0
  6
Continuous
 62
     7
370
    25
100
AcDbLine
 10
747.5575507086
 20
324.7555167764
 30
0.0
 11
747.5575507086
 21
321.2555167764
 31
0.0
  0
LINE
  5
255
330
1F
100
AcDbEntity
  8
0
  6
Continuous
 62
     7
370
    25
100
AcDbLine
 10
747.5575507086
 20
321.2555167764
 30
0.0
 11
751.0575507086
 21
321.2555167764
 31
0.0
  0
LINE
  5
256
330
1F
100
AcDbEntity
  8
0
  6
Continuous
 62
     7
370
    25
100
AcDbLine
 10
751.0575507086
 20
321.2555167764
 30
0.0
 11
751.0575507086
 21
324.7555167764
 31
0.0
  0
LINE
  5
257
330
1F
100
AcDbEntity
  8
0
  6
Continuous
 62
     7
370
    25
100
AcDbLine
 10
751.0575507086
 20
324.7555167764
 30
0.0
 11
747.5575507086
 21
324.7555167764
 31
0.0
  0
LINE
  5
258
330
1F
100
AcDbEntity
  8
0
  6
Continuous
 62
     7
370
    25
100
AcDbLine
 10
752.4575507086
 20
324.7555167764
 30
0.0
 11
752.4575507086
 21
321.2555167764
 31
0.0
  0
LINE
  5
259
330
1F
100
AcDbEntity
  8
0
  6
Continuous
 62
     7
370
    25
100
AcDbLine
 10
752.4575507086
 20
321.2555167764
 30
0.0
 11
755.9575507086
 21
321.2555167764
 31
0.0
  0
LINE
  5
25A
330
1F
100
AcDbEntity
  8
0
  6
Continuous
 62
     7
370
    25
100
AcDbLine
 10
755.9575507086
 20
321.2555167764
 30
0.0
 11
755.9575507086
 21
324.7555167764
 31
0.0
  0
LINE
  5
25B
330
1F
100
AcDbEntity
  8
0
  6
Continuous
 62
     7
370
    25
100
AcDbLine
 10
755.9575507086
 20
324.7555167764
 30
0.0
 11
752.4575507086
 21
324.7555167764
 31
0.0
  0
LINE
  5
25C
330
1F
100
AcDbEntity
  8
0
  6
Continuous
 62
     7
370
    25
100
AcDbLine
 10
757.3575507086
 20
324.7555167764
 30
0.0
 11
757.3575507086
 21
321.2555167764
 31
0.0
  0
LINE
  5
25D
330
1F
100
AcDbEntity
  8
0
  6
Continuous
 62
     7
370
    25
100
AcDbLine
 10
757.3575507086
 20
321.2555167764
 30
0.0
 11
760.8575507086
 21
321.2555167764
 31
0.0
  0
LINE
  5
25E
330
1F
100
AcDbEntity
  8
0
  6
Continuous
 62
     7
370
    25
100
AcDbLine
 10
760.8575507086
 20
321.2555167764
 30
0.0
 11
760.8575507086
 21
324.7555167764
 31
0.0
  0
LINE
  5
25F
330
1F
100
AcDbEntity
  8
0
  6
Continuous
 62
     7
370
    25
100
AcDbLine
 10
760.8575507086
 20
324.7555167764
 30
0.0
 11
757.3575507086
 21
324.7555167764
 31
0.0
  0
LINE
  5
260
330
1F
100
AcDbEntity
  8
0
  6
Continuous
 62
     7
370
    25
100
AcDbLine
 10
762.2575507086
 20
324.7555167764
 30
0.0
 11
762.2575507086
 21
321.2555167764
 31
0.0
  0
LINE
  5
261
330
1F
100
AcDbEntity
  8
0
  6
Continuous
 62
     7
370
    25
100
AcDbLine
 10
762.2575507086
 20
321.2555167764
 30
0.0
 11
765.7575507086
 21
321.2555167764
 31
0.0
  0
LINE
  5
262
330
1F
100
AcDbEntity
  8
0
  6
Continuous
 62
     7
370
    25
100
AcDbLine
 10
765.7575507086
 20
321.2555167764
 30
0.0
 11
765.7575507086
 21
324.7555167764
 31
0.0
  0
LINE
  5
263
330
1F
100
AcDbEntity
  8
0
  6
Continuous
 62
     7
370
    25
100
AcDbLine
 10
765.7575507086
 20
324.7555167764
 30
0.0
 11
762.2575507086
 21
324.7555167764
 31
0.0
  0
LINE
  5
264
330
1F
100
AcDbEntity
  8
0
  6
Continuous
 62
     7
370
    25
100
AcDbLine
 10
767.1575507086
 20
324.7555167764
 30
0.0
 11
767.1575507086
 21
321.2555167764
 31
0.0
  0
LINE
  5
265
330
1F
100
AcDbEntity
  8
0
  6
Continuous
 62
     7
370
    25
100
AcDbLine
 10
767.1575507086
 20
321.2555167764
 30
0.0
 11
770.6575507086
 21
321.2555167764
 31
0.0
  0
LINE
  5
266
330
1F
100
AcDbEntity
  8
0
  6
Continuous
 62
     7
370
    25
100
AcDbLine
 10
770.6575507086
 20
321.2555167764
 30
0.0
 11
770.6575507086
 21
324.7555167764
 31
0.0
  0
LINE
  5
267
330
1F
100
AcDbEntity
  8
0
  6
Continuous
 62
     7
370
    25
100
AcDbLine
 10
770.6575507086
 20
324.7555167764
 30
0.0
 11
767.1575507086
 21
324.7555167764
 31
0.0
  0
LINE
  5
268
330
1F
100
AcDbEntity
  8
0
  6
Continuous
 62
     7
370
    25
100
AcDbLine
 10
772.0575507086
 20
324.7555167764
 30
0.0
 11
772.0575507086
 21
321.2555167764
 31
0.0
  0
LINE
  5
269
330
1F
100
AcDbEntity
  8
0
  6
Continuous
 62
     7
370
    25
100
AcDbLine
 10
772.0575507086
 20
321.2555167764
 30
0.0
 11
775.5575507086
 21
321.2555167764
 31
0.0
  0
LINE
  5
26A
330
1F
100
AcDbEntity
  8
0
  6
Continuous
 62
     7
370
    25
100
AcDbLine
 10
775.5575507086
 20
321.2555167764
 30
0.0
 11
775.5575507086
 21
324.7555167764
 31
0.0
  0
LINE
  5
26B
330
1F
100
AcDbEntity
  8
0
  6
Continuous
 62
     7
370
    25
100
AcDbLine
 10
775.5575507086
 20
324.7555167764
 30
0.0
 11
772.0575507086
 21
324.7555167764
 31
0.0
  0
LINE
  5
26C
330
1F
100
AcDbEntity
  8
0
  6
Continuous
 62
     7
370
    25
100
AcDbLine
 10
776.9575507086
 20
324.7555167764
 30
0.0
 11
776.9575507086
 21
321.2555167764
 31
0.0
  0
LINE
  5
26D
330
1F
100
AcDbEntity
  8
0
  6
Continuous
 62
     7
370
    25
100
AcDbLine
 10
776.9575507086
 20
321.2555167764
 30
0.0
 11
780.4575507086
 21
321.2555167764
 31
0.0
  0
LINE
  5
26E
330
1F
100
AcDbEntity
  8
0
  6
Continuous
 62
     7
370
    25
100
AcDbLine
 10
780.4575507086
 20
321.2555167764
 30
0.0
 11
780.4575507086
 21
324.7555167764
 31
0.0
  0
LINE
  5
26F
330
1F
100
AcDbEntity
  8
0
  6
Continuous
 62
     7
370
    25
100
AcDbLine
 10
780.4575507086
 20
324.7555167764
 30
0.0
 11
776.9575507086
 21
324.7555167764
 31
0.0
  0
LINE
  5
270
330
1F
100
AcDbEntity
  8
0
  6
Continuous
 62
     7
370
    25
100
AcDbLine
 10
781.8575507086
 20
324.7555167764
 30
0.0
 11
781.8575507086
 21
321.2555167764
 31
0.0
  0
LINE
  5
271
330
1F
100
AcDbEntity
  8
0
  6
Continuous
 62
     7
370
    25
100
AcDbLine
 10
781.8575507086
 20
321.2555167764
 30
0.0
 11
785.3575507086
 21
321.2555167764
 31
0.0
  0
LINE
  5
272
330
1F
100
AcDbEntity
  8
0
  6
Continuous
 62
     7
370
    25
100
AcDbLine
 10
785.3575507086
 20
321.2555167764
 30
0.0
 11
785.3575507086
 21
324.7555167764
 31
0.0
  0
LINE
  5
273
330
1F
100
AcDbEntity
  8
0
  6
Continuous
 62
     7
370
    25
100
AcDbLine
 10
785.3575507086
 20
324.7555167764
 30
0.0
 11
781.8575507086
 21
324.7555167764
 31
0.0
  0
LINE
  5
274
330
1F
100
AcDbEntity
  8
0
  6
Continuous
 62
     7
370
    25
100
AcDbLine
 10
732.8575507086
 20
320.0555167764
 30
0.0
 11
732.8575507086
 21
316.5555167764
 31
0.0
  0
LINE
  5
275
330
1F
100
AcDbEntity
  8
0
  6
Continuous
 62
     7
370
    25
100
AcDbLine
 10
732.8575507086
 20
316.5555167764
 30
0.0
 11
736.3575507086
 21
316.5555167764
 31
0.0
  0
LINE
  5
276
330
1F
100
AcDbEntity
  8
0
  6
Continuous
 62
     7
370
    25
100
AcDbLine
 10
736.3575507086
 20
316.5555167764
 30
0.0
 11
736.3575507086
 21
320.0555167764
 31
0.0
  0
LINE
  5
277
330
1F
100
AcDbEntity
  8
0
  6
Continuous
 62
     7
370
    25
100
AcDbLine
 10
736.3575507086
 20
320.0555167764
 30
0.0
 11
732.8575507086
 21
320.0555167764
 31
0.0
  0
LINE
  5
278
330
1F
100
AcDbEntity
  8
0
  6
Continuous
 62
     7
370
    25
100
AcDbLine
 10
737.7575507086
 20
320.0555167764
 30
0.0
 11
737.7575507086
 21
316.5555167764
 31
0.0
  0
LINE
  5
279
330
1F
100
AcDbEntity
  8
0
  6
Continuous
 62
     7
370
    25
100
AcDbLine
 10
737.7575507086
 20
316.5555167764
 30
0.0
 11
741.2575507086
 21
316.5555167764
 31
0.0
  0
LINE
  5
27A
330
1F
100
AcDbEntity
  8
0
  6
Continuous
 62
     7
370
    25
100
AcDbLine
 10
741.2575507086
 20
316.5555167764
 30
0.0
 11
741.2575507086
 21
320.0555167764
 31
0.0
  0
LINE
  5
27B
330
1F
100
AcDbEntity
  8
0
  6
Continuous
 62
     7
370
    25
100
AcDbLine
 10
741.2575507086
 20
320.0555167764
 30
0.0
 11
737.7575507086
 21
320.0555167764
 31
0.0
  0
LINE
  5
27C
330
1F
100
AcDbEntity
  8
0
  6
Continuous
 62
     7
370
    25
100
AcDbLine
 10
742.6575507086
 20
320.0555167764
 30
0.0
 11
742.6575507086
 21
316.5555167764
 31
0.0
  0
LINE
  5
27D
330
1F
100
AcDbEntity
  8
0
  6
Continuous
 62
     7
370
    25
100
AcDbLine
 10
742.6575507086
 20
316.5555167764
 30
0.0
 11
746.1575507086
 21
316.5555167764
 31
0.0
  0
LINE
  5
27E
330
1F
100
AcDbEntity
  8
0
  6
Continuous
 62
     7
370
    25
100
AcDbLine
 10
746.1575507086
 20
316.5555167764
 30
0.0
 11
746.1575507086
 21
320.0555167764
 31
0.0
  0
LINE
  5
27F
330
1F
100
AcDbEntity
  8
0
  6
Continuous
 62
     7
370
    25
100
AcDbLine
 10
746.1575507086
 20
320.0555167764
 30
0.0
 11
742.6575507086
 21
320.0555167764
 31
0.0
  0
LINE
  5
280
330
1F
100
AcDbEntity
  8
0
  6
Continuous
 62
     7
370
    25
100
AcDbLine
 10
747.5575507086
 20
320.0555167764
 30
0.0
 11
747.5575507086
 21
316.5555167764
 31
0.0
  0
LINE
  5
281
330
1F
100
AcDbEntity
  8
0
  6
Continuous
 62
     7
370
    25
100
AcDbLine
 10
747.5575507086
 20
316.5555167764
 30
0.0
 11
751.0575507086
 21
316.5555167764
 31
0.0
  0
LINE
  5
282
330
1F
100
AcDbEntity
  8
0
  6
Continuous
 62
     7
370
    25
100
AcDbLine
 10
751.0575507086
 20
316.5555167764
 30
0.0
 11
751.0575507086
 21
320.0555167764
 31
0.0
  0
LINE
  5
283
330
1F
100
AcDbEntity
  8
0
  6
Continuous
 62
     7
370
    25
100
AcDbLine
 10
751.0575507086
 20
320.0555167764
 30
0.0
 11
747.5575507086
 21
320.0555167764
 31
0.0
  0
LINE
  5
284
330
1F
100
AcDbEntity
  8
0
  6
Continuous
 62
     7
370
    25
100
AcDbLine
 10
732.8575507086
 20
315.3555167764
 30
0.0
 11
732.8575507086
 21
311.8555167764
 31
0.0
  0
LINE
  5
285
330
1F
100
AcDbEntity
  8
0
  6
Continuous
 62
     7
370
    25
100
AcDbLine
 10
732.8575507086
 20
311.8555167764
 30
0.0
 11
736.3575507086
 21
311.8555167764
 31
0.0
  0
LINE
  5
286
330
1F
100
AcDbEntity
  8
0
  6
Continuous
 62
     7
370
    25
100
AcDbLine
 10
736.3575507086
 20
311.8555167764
 30
0.0
 11
736.3575507086
 21
315.3555167764
 31
0.0
  0
LINE
  5
287
330
1F
100
AcDbEntity
  8
0
  6
Continuous
 62
     7
370
    25
100
AcDbLine
 10
736.3575507086
 20
315.3555167764
 30
0.0
 11
732.8575507086
 21
315.3555167764
 31
0.0
  0
LINE
  5
288
330
1F
100
AcDbEntity
  8
0
  6
Continuous
 62
     7
370
    25
100
AcDbLine
 10
737.7575507086
 20
315.3555167764
 30
0.0
 11
737.7575507086
 21
311.8555167764
 31
0.0
  0
LINE
  5
289
330
1F
100
AcDbEntity
  8
0
  6
Continuous
 62
     7
370
    25
100
AcDbLine
 10
737.7575507086
 20
311.8555167764
 30
0.0
 11
741.2575507086
 21
311.8555167764
 31
0.0
  0
LINE
  5
28A
330
1F
100
AcDbEntity
  8
0
  6
Continuous
 62
     7
370
    25
100
AcDbLine
 10
741.2575507086
 20
311.8555167764
 30
0.0
 11
741.2575507086
 21
315.3555167764
 31
0.0
  0
LINE
  5
28B
330
1F
100
AcDbEntity
  8
0
  6
Continuous
 62
     7
370
    25
100
AcDbLine
 10
741.2575507086
 20
315.3555167764
 30
0.0
 11
737.7575507086
 21
315.3555167764
 31
0.0
  0
LINE
  5
28C
330
1F
100
AcDbEntity
  8
0
  6
Continuous
 62
     7
370
    25
100
AcDbLine
 10
742.6575507086
 20
315.3555167764
 30
0.0
 11
742.6575507086
 21
311.8555167764
 31
0.0
  0
LINE
  5
28D
330
1F
100
AcDbEntity
  8
0
  6
Continuous
 62
     7
370
    25
100
AcDbLine
 10
742.6575507086
 20
311.8555167764
 30
0.0
 11
746.1575507086
 21
311.8555167764
 31
0.0
  0
LINE
  5
28E
330
1F
100
AcDbEntity
  8
0
  6
Continuous
 62
     7
370
    25
100
AcDbLine
 10
746.1575507086
 20
311.8555167764
 30
0.0
 11
746.1575507086
 21
315.3555167764
 31
0.0
  0
LINE
  5
28F
330
1F
100
AcDbEntity
  8
0
  6
Continuous
 62
     7
370
    25
100
AcDbLine
 10
746.1575507086
 20
315.3555167764
 30
0.0
 11
742.6575507086
 21
315.3555167764
 31
0.0
  0
LINE
  5
290
330
1F
100
AcDbEntity
  8
0
  6
Continuous
 62
     7
370
    25
100
AcDbLine
 10
747.5575507086
 20
315.3555167764
 30
0.0
 11
747.5575507086
 21
311.8555167764
 31
0.0
  0
LINE
  5
291
330
1F
100
AcDbEntity
  8
0
  6
Continuous
 62
     7
370
    25
100
AcDbLine
 10
747.5575507086
 20
311.8555167764
 30
0.0
 11
751.0575507086
 21
311.8555167764
 31
0.0
  0
LINE
  5
292
330
1F
100
AcDbEntity
  8
0
  6
Continuous
 62
     7
370
    25
100
AcDbLine
 10
751.0575507086
 20
311.8555167764
 30
0.0
 11
751.0575507086
 21
315.3555167764
 31
0.0
  0
LINE
  5
293
330
1F
100
AcDbEntity
  8
0
  6
Continuous
 62
     7
370
    25
100
AcDbLine
 10
751.0575507086
 20
315.3555167764
 30
0.0
 11
747.5575507086
 21
315.3555167764
 31
0.0
  0
LINE
  5
294
330
1F
100
AcDbEntity
  8
0
  6
Continuous
 62
     7
370
    25
100
AcDbLine
 10
732.8575507086
 20
310.6555167764
 30
0.0
 11
732.8575507086
 21
307.1555167764
 31
0.0
  0
LINE
  5
295
330
1F
100
AcDbEntity
  8
0
  6
Continuous
 62
     7
370
    25
100
AcDbLine
 10
732.8575507086
 20
307.1555167764
 30
0.0
 11
736.3575507086
 21
307.1555167764
 31
0.0
  0
LINE
  5
296
330
1F
100
AcDbEntity
  8
0
  6
Continuous
 62
     7
370
    25
100
AcDbLine
 10
736.3575507086
 20
307.1555167764
 30
0.0
 11
736.3575507086
 21
310.6555167764
 31
0.0
  0
LINE
  5
297
330
1F
100
AcDbEntity
  8
0
  6
Continuous
 62
     7
370
    25
100
AcDbLine
 10
736.3575507086
 20
310.6555167764
 30
0.0
 11
732.8575507086
 21
310.6555167764
 31
0.0
  0
LINE
  5
298
330
1F
100
AcDbEntity
  8
0
  6
Continuous
 62
     7
370
    25
100
AcDbLine
 10
737.7575507086
 20
310.6555167764
 30
0.0
 11
737.7575507086
 21
307.1555167764
 31
0.0
  0
LINE
  5
299
330
1F
100
AcDbEntity
  8
0
  6
Continuous
 62
     7
370
    25
100
AcDbLine
 10
737.7575507086
 20
307.1555167764
 30
0.0
 11
741.2575507086
 21
307.1555167764
 31
0.0
  0
LINE
  5
29A
330
1F
100
AcDbEntity
  8
0
  6
Continuous
 62
     7
370
    25
100
AcDbLine
 10
741.2575507086
 20
307.1555167764
 30
0.0
 11
741.2575507086
 21
310.6555167764
 31
0.0
  0
LINE
  5
29B
330
1F
100
AcDbEntity
  8
0
  6
Continuous
 62
     7
370
    25
100
AcDbLine
 10
741.2575507086
 20
310.6555167764
 30
0.0
 11
737.7575507086
 21
310.6555167764
 31
0.0
  0
LINE
  5
29C
330
1F
100
AcDbEntity
  8
0
  6
Continuous
 62
     7
370
    25
100
AcDbLine
 10
742.6575507086
 20
310.6555167764
 30
0.0
 11
742.6575507086
 21
307.1555167764
 31
0.0
  0
LINE
  5
29D
330
1F
100
AcDbEntity
  8
0
  6
Continuous
 62
     7
370
    25
100
AcDbLine
 10
742.6575507086
 20
307.1555167764
 30
0.0
 11
746.1575507086
 21
307.1555167764
 31
0.0
  0
LINE
  5
29E
330
1F
100
AcDbEntity
  8
0
  6
Continuous
 62
     7
370
    25
100
AcDbLine
 10
746.1575507086
 20
307.1555167764
 30
0.0
 11
746.1575507086
 21
310.6555167764
 31
0.0
  0
LINE
  5
29F
330
1F
100
AcDbEntity
  8
0
  6
Continuous
 62
     7
370
    25
100
AcDbLine
 10
746.1575507086
 20
310.6555167764
 30
0.0
 11
742.6575507086
 21
310.6555167764
 31
0.0
  0
LINE
  5
2A0
330
1F
100
AcDbEntity
  8
0
  6
Continuous
 62
     7
370
    25
100
AcDbLine
 10
747.5575507086
 20
310.6555167764
 30
0.0
 11
747.5575507086
 21
307.1555167764
 31
0.0
  0
LINE
  5
2A1
330
1F
100
AcDbEntity
  8
0
  6
Continuous
 62
     7
370
    25
100
AcDbLine
 10
747.5575507086
 20
307.1555167764
 30
0.0
 11
751.0575507086
 21
307.1555167764
 31
0.0
  0
LINE
  5
2A2
330
1F
100
AcDbEntity
  8
0
  6
Continuous
 62
     7
370
    25
100
AcDbLine
 10
751.0575507086
 20
307.1555167764
 30
0.0
 11
751.0575507086
 21
310.6555167764
 31
0.0
  0
LINE
  5
2A3
330
1F
100
AcDbEntity
  8
0
  6
Continuous
 62
     7
370
    25
100
AcDbLine
 10
751.0575507086
 20
310.6555167764
 30
0.0
 11
747.5575507086
 21
310.6555167764
 31
0.0
  0
LINE
  5
2A4
330
1F
100
AcDbEntity
  8
0
  6
Continuous
 62
     7
370
    25
100
AcDbLine
 10
732.8575507086
 20
305.9555167764
 30
0.0
 11
732.8575507086
 21
302.4555167764
 31
0.0
  0
LINE
  5
2A5
330
1F
100
AcDbEntity
  8
0
  6
Continuous
 62
     7
370
    25
100
AcDbLine
 10
732.8575507086
 20
302.4555167764
 30
0.0
 11
736.3575507086
 21
302.4555167764
 31
0.0
  0
LINE
  5
2A6
330
1F
100
AcDbEntity
  8
0
  6
Continuous
 62
     7
370
    25
100
AcDbLine
 10
736.3575507086
 20
302.4555167764
 30
0.0
 11
736.3575507086
 21
305.9555167764
 31
0.0
  0
LINE
  5
2A7
330
1F
100
AcDbEntity
  8
0
  6
Continuous
 62
     7
370
    25
100
AcDbLine
 10
736.3575507086
 20
305.9555167764
 30
0.0
 11
732.8575507086
 21
305.9555167764
 31
0.0
  0
LINE
  5
2A8
330
1F
100
AcDbEntity
  8
0
  6
Continuous
 62
     7
370
    25
100
AcDbLine
 10
737.7575507086
 20
305.9555167764
 30
0.0
 11
737.7575507086
 21
302.4555167764
 31
0.0
  0
LINE
  5
2A9
330
1F
100
AcDbEntity
  8
0
  6
Continuous
 62
     7
370
    25
100
AcDbLine
 10
737.7575507086
 20
302.4555167764
 30
0.0
 11
741.2575507086
 21
302.4555167764
 31
0.0
  0
LINE
  5
2AA
330
1F
100
AcDbEntity
  8
0
  6
Continuous
 62
     7
370
    25
100
AcDbLine
 10
741.2575507086
 20
302.4555167764
 30
0.0
 11
741.2575507086
 21
305.9555167764
 31
0.0
  0
LINE
  5
2AB
330
1F
100
AcDbEntity
  8
0
  6
Continuous
 62
     7
370
    25
100
AcDbLine
 10
741.2575507086
 20
305.9555167764
 30
0.0
 11
737.7575507086
 21
305.9555167764
 31
0.0
  0
LINE
  5
2AC
330
1F
100
AcDbEntity
  8
0
  6
Continuous
 62
     7
370
    25
100
AcDbLine
 10
742.6575507086
 20
305.9555167764
 30
0.0
 11
742.6575507086
 21
302.4555167764
 31
0.0
  0
LINE
  5
2AD
330
1F
100
AcDbEntity
  8
0
  6
Continuous
 62
     7
370
    25
100
AcDbLine
 10
742.6575507086
 20
302.4555167764
 30
0.0
 11
746.1575507086
 21
302.4555167764
 31
0.0
  0
LINE
  5
2AE
330
1F
100
AcDbEntity
  8
0
  6
Continuous
 62
     7
370
    25
100
AcDbLine
 10
746.1575507086
 20
302.4555167764
 30
0.0
 11
746.1575507086
 21
305.9555167764
 31
0.0
  0
LINE
  5
2AF
330
1F
100
AcDbEntity
  8
0
  6
Continuous
 62
     7
370
    25
100
AcDbLine
 10
746.1575507086
 20
305.9555167764
 30
0.0
 11
742.6575507086
 21
305.9555167764
 31
0.0
  0
LINE
  5
2B0
330
1F
100
AcDbEntity
  8
0
  6
Continuous
 62
     7
370
    25
100
AcDbLine
 10
747.5575507086
 20
305.9555167764
 30
0.0
 11
747.5575507086
 21
302.4555167764
 31
0.0
  0
LINE
  5
2B1
330
1F
100
AcDbEntity
  8
0
  6
Continuous
 62
     7
370
    25
100
AcDbLine
 10
747.5575507086
 20
302.4555167764
 30
0.0
 11
751.0575507086
 21
302.4555167764
 31
0.0
  0
LINE
  5
2B2
330
1F
100
AcDbEntity
  8
0
  6
Continuous
 62
     7
370
    25
100
AcDbLine
 10
751.0575507086
 20
302.4555167764
 30
0.0
 11
751.0575507086
 21
305.9555167764
 31
0.0
  0
LINE
  5
2B3
330
1F
100
AcDbEntity
  8
0
  6
Continuous
 62
     7
370
    25
100
AcDbLine
 10
751.0575507086
 20
305.9555167764
 30
0.0
 11
747.5575507086
 21
305.9555167764
 31
0.0
  0
LINE
  5
2B4
330
1F
100
AcDbEntity
  8
0
  6
Continuous
 62
     7
370
    25
100
AcDbLine
 10
732.8575507086
 20
301.2555167764
 30
0.0
 11
732.8575507086
 21
297.7555167764
 31
0.0
  0
LINE
  5
2B5
330
1F
100
AcDbEntity
  8
0
  6
Continuous
 62
     7
370
    25
100
AcDbLine
 10
732.8575507086
 20
297.7555167764
 30
0.0
 11
736.3575507086
 21
297.7555167764
 31
0.0
  0
LINE
  5
2B6
330
1F
100
AcDbEntity
  8
0
  6
Continuous
 62
     7
370
    25
100
AcDbLine
 10
736.3575507086
 20
297.7555167764
 30
0.0
 11
736.3575507086
 21
301.2555167764
 31
0.0
  0
LINE
  5
2B7
330
1F
100
AcDbEntity
  8
0
  6
Continuous
 62
     7
370
    25
100
AcDbLine
 10
736.3575507086
 20
301.2555167764
 30
0.0
 11
732.8575507086
 21
301.2555167764
 31
0.0
  0
LINE
  5
2B8
330
1F
100
AcDbEntity
  8
0
  6
Continuous
 62
     7
370
    25
100
AcDbLine
 10
737.7575507086
 20
301.2555167764
 30
0.0
 11
737.7575507086
 21
297.7555167764
 31
0.0
  0
LINE
  5
2B9
330
1F
100
AcDbEntity
  8
0
  6
Continuous
 62
     7
370
    25
100
AcDbLine
 10
737.7575507086
 20
297.7555167764
 30
0.0
 11
741.2575507086
 21
297.7555167764
 31
0.0
  0
LINE
  5
2BA
330
1F
100
AcDbEntity
  8
0
  6
Continuous
 62
     7
370
    25
100
AcDbLine
 10
741.2575507086
 20
297.7555167764
 30
0.0
 11
741.2575507086
 21
301.2555167764
 31
0.0
  0
LINE
  5
2BB
330
1F
100
AcDbEntity
  8
0
  6
Continuous
 62
     7
370
    25
100
AcDbLine
 10
741.2575507086
 20
301.2555167764
 30
0.0
 11
737.7575507086
 21
301.2555167764
 31
0.0
  0
LINE
  5
2BC
330
1F
100
AcDbEntity
  8
0
  6
Continuous
 62
     7
370
    25
100
AcDbLine
 10
742.6575507086
 20
301.2555167764
 30
0.0
 11
742.6575507086
 21
297.7555167764
 31
0.0
  0
LINE
  5
2BD
330
1F
100
AcDbEntity
  8
0
  6
Continuous
 62
     7
370
    25
100
AcDbLine
 10
742.6575507086
 20
297.7555167764
 30
0.0
 11
746.1575507086
 21
297.7555167764
 31
0.0
  0
LINE
  5
2BE
330
1F
100
AcDbEntity
  8
0
  6
Continuous
 62
     7
370
    25
100
AcDbLine
 10
746.1575507086
 20
297.7555167764
 30
0.0
 11
746.1575507086
 21
301.2555167764
 31
0.0
  0
LINE
  5
2BF
330
1F
100
AcDbEntity
  8
0
  6
Continuous
 62
     7
370
    25
100
AcDbLine
 10
746.1575507086
 20
301.2555167764
 30
0.0
 11
742.6575507086
 21
301.2555167764
 31
0.0
  0
LINE
  5
2C0
330
1F
100
AcDbEntity
  8
0
  6
Continuous
 62
     7
370
    25
100
AcDbLine
 10
747.5575507086
 20
301.2555167764
 30
0.0
 11
747.5575507086
 21
297.7555167764
 31
0.0
  0
LINE
  5
2C1
330
1F
100
AcDbEntity
  8
0
  6
Continuous
 62
     7
370
    25
100
AcDbLine
 10
747.5575507086
 20
297.7555167764
 30
0.0
 11
751.0575507086
 21
297.7555167764
 31
0.0
  0
LINE
  5
2C2
330
1F
100
AcDbEntity
  8
0
  6
Continuous
 62
     7
370
    25
100
AcDbLine
 10
751.0575507086
 20
297.7555167764
 30
0.0
 11
751.0575507086
 21
301.2555167764
 31
0.0
  0
LINE
  5
2C3
330
1F
100
AcDbEntity
  8
0
  6
Continuous
 62
     7
370
    25
100
AcDbLine
 10
751.0575507086
 20
301.2555167764
 30
0.0
 11
747.5575507086
 21
301.2555167764
 31
0.0
  0
LINE
  5
2C4
330
1F
100
AcDbEntity
  8
0
  6
Continuous
 62
     7
370
    25
100
AcDbLine
 10
832.7575507086
 20
325.9555167764
 30
0.0
 11
836.2575507086
 21
325.9555167764
 31
0.0
  0
LINE
  5
2C5
330
1F
100
AcDbEntity
  8
0
  6
Continuous
 62
     7
370
    25
100
AcDbLine
 10
836.2575507086
 20
325.9555167764
 30
0.0
 11
836.2575507086
 21
329.4555167764
 31
0.0
  0
LINE
  5
2C6
330
1F
100
AcDbEntity
  8
0
  6
Continuous
 62
     7
370
    25
100
AcDbLine
 10
836.2575507086
 20
329.4555167764
 30
0.0
 11
832.7575507086
 21
329.4555167764
 31
0.0
  0
LINE
  5
2C7
330
1F
100
AcDbEntity
  8
0
  6
Continuous
 62
     7
370
    25
100
AcDbLine
 10
832.7575507086
 20
329.4555167764
 30
0.0
 11
832.7575507086
 21
325.9555167764
 31
0.0
  0
LINE
  5
2C8
330
1F
100
AcDbEntity
  8
0
  6
Continuous
 62
     7
370
    25
100
AcDbLine
 10
832.7575507086
 20
321.2555167764
 30
0.0
 11
836.2575507086
 21
321.2555167764
 31
0.0
  0
LINE
  5
2C9
330
1F
100
AcDbEntity
  8
0
  6
Continuous
 62
     7
370
    25
100
AcDbLine
 10
836.2575507086
 20
321.2555167764
 30
0.0
 11
836.2575507086
 21
324.7555167764
 31
0.0
  0
LINE
  5
2CA
330
1F
100
AcDbEntity
  8
0
  6
Continuous
 62
     7
370
    25
100
AcDbLine
 10
836.2575507086
 20
324.7555167764
 30
0.0
 11
832.7575507086
 21
324.7555167764
 31
0.0
  0
LINE
  5
2CB
330
1F
100
AcDbEntity
  8
0
  6
Continuous
 62
     7
370
    25
100
AcDbLine
 10
832.7575507086
 20
324.7555167764
 30
0.0
 11
832.7575507086
 21
321.2555167764
 31
0.0
  0
LINE
  5
2CC
330
1F
100
AcDbEntity
  8
0
  6
Continuous
 62
     7
370
    25
100
AcDbLine
 10
832.7575507086
 20
316.5555167764
 30
0.0
 11
836.2575507086
 21
316.5555167764
 31
0.0
  0
LINE
  5
2CD
330
1F
100
AcDbEntity
  8
0
  6
Continuous
 62
     7
370
    25
100
AcDbLine
 10
836.2575507086
 20
316.5555167764
 30
0.0
 11
836.2575507086
 21
320.0555167764
 31
0.0
  0
LINE
  5
2CE
330
1F
100
AcDbEntity
  8
0
  6
Continuous
 62
     7
370
    25
100
AcDbLine
 10
836.2575507086
 20
320.0555167764
 30
0.0
 11
832.7575507086
 21
320.0555167764
 31
0.0
  0
LINE
  5
2CF
330
1F
100
AcDbEntity
  8
0
  6
Continuous
 62
     7
370
    25
100
AcDbLine
 10
832.7575507086
 20
320.0555167764
 30
0.0
 11
832.7575507086
 21
316.5555167764
 31
0.0
  0
LINE
  5
2D0
330
1F
100
AcDbEntity
  8
0
  6
Continuous
 62
     7
370
    25
100
AcDbLine
 10
832.7575507086
 20
311.8555167764
 30
0.0
 11
836.2575507086
 21
311.8555167764
 31
0.0
  0
LINE
  5
2D1
330
1F
100
AcDbEntity
  8
0
  6
Continuous
 62
     7
370
    25
100
AcDbLine
 10
836.2575507086
 20
311.8555167764
 30
0.0
 11
836.2575507086
 21
315.3555167764
 31
0.0
  0
LINE
  5
2D2
330
1F
100
AcDbEntity
  8
0
  6
Continuous
 62
     7
370
    25
100
AcDbLine
 10
836.2575507086
 20
315.3555167764
 30
0.0
 11
832.7575507086
 21
315.3555167764
 31
0.0
  0
LINE
  5
2D3
330
1F
100
AcDbEntity
  8
0
  6
Continuous
 62
     7
370
    25
100
AcDbLine
 10
832.7575507086
 20
315.3555167764
 30
0.0
 11
832.7575507086
 21
311.8555167764
 31
0.0
  0
LINE
  5
2D4
330
1F
100
AcDbEntity
  8
0
  6
Continuous
 62
     7
370
    25
100
AcDbLine
 10
832.7575507086
 20
307.1555167764
 30
0.0
 11
836.2575507086
 21
307.1555167764
 31
0.0
  0
LINE
  5
2D5
330
1F
100
AcDbEntity
  8
0
  6
Continuous
 62
     7
370
    25
100
AcDbLine
 10
836.2575507086
 20
307.1555167764
 30
0.0
 11
836.2575507086
 21
310.6555167764
 31
0.0
  0
LINE
  5
2D6
330
1F
100
AcDbEntity
  8
0
  6
Continuous
 62
     7
370
    25
100
AcDbLine
 10
836.2575507086
 20
310.6555167764
 30
0.0
 11
832.7575507086
 21
310.6555167764
 31
0.0
  0
LINE
  5
2D7
330
1F
100
AcDbEntity
  8
0
  6
Continuous
 62
     7
370
    25
100
AcDbLine
 10
832.7575507086
 20
310.6555167764
 30
0.0
 11
832.7575507086
 21
307.1555167764
 31
0.0
  0
LINE
  5
2D8
330
1F
100
AcDbEntity
  8
0
  6
Continuous
 62
     7
370
    25
100
AcDbLine
 10
832.7575507086
 20
302.4555167764
 30
0.0
 11
836.2575507086
 21
302.4555167764
 31
0.0
  0
LINE
  5
2D9
330
1F
100
AcDbEntity
  8
0
  6
Continuous
 62
     7
370
    25
100
AcDbLine
 10
836.2575507086
 20
302.4555167764
 30
0.0
 11
836.2575507086
 21
305.9555167764
 31
0.0
  0
LINE
  5
2DA
330
1F
100
AcDbEntity
  8
0
  6
Continuous
 62
     7
370
    25
100
AcDbLine
 10
836.2575507086
 20
305.9555167764
 30
0.0
 11
832.7575507086
 21
305.9555167764
 31
0.0
  0
LINE
  5
2DB
330
1F
100
AcDbEntity
  8
0
  6
Continuous
 62
     7
370
    25
100
AcDbLine
 10
832.7575507086
 20
305.9555167764
 30
0.0
 11
832.7575507086
 21
302.4555167764
 31
0.0
  0
LINE
  5
2DC
330
1F
100
AcDbEntity
  8
0
  6
Continuous
 62
     7
370
    25
100
AcDbLine
 10
832.7575507086
 20
297.7555167764
 30
0.0
 11
836.2575507086
 21
297.7555167764
 31
0.0
  0
LINE
  5
2DD
330
1F
100
AcDbEntity
  8
0
  6
Continuous
 62
     7
370
    25
100
AcDbLine
 10
836.2575507086
 20
297.7555167764
 30
0.0
 11
836.2575507086
 21
301.2555167764
 31
0.0
  0
LINE
  5
2DE
330
1F
100
AcDbEntity
  8
0
  6
Continuous
 62
     7
370
    25
100
AcDbLine
 10
836.2575507086
 20
301.2555167764
 30
0.0
 11
832.7575507086
 21
301.2555167764
 31
0.0
  0
LINE
  5
2DF
330
1F
100
AcDbEntity
  8
0
  6
Continuous
 62
     7
370
    25
100
AcDbLine
 10
832.7575507086
 20
301.2555167764
 30
0.0
 11
832.7575507086
 21
297.7555167764
 31
0.0
  0
LINE
  5
2E0
330
1F
100
AcDbEntity
  8
0
  6
Continuous
 62
     7
370
    25
100
AcDbLine
 10
730.0575507086
 20
333.4055167764
 30
0.0
 11
839.0575507086
 21
333.4055167764
 31
0.0
  0
LINE
  5
2E1
330
1F
100
AcDbEntity
  8
0
  6
Continuous
 62
     7
370
    25
100
AcDbLine
 10
839.0575507086
 20
333.4055167764
 30
0.0
 11
839.0575507086
 21
291.0055167764
 31
0.0
  0
LINE
  5
2E2
330
1F
100
AcDbEntity
  8
0
  6
Continuous
 62
     7
370
    25
100
AcDbLine
 10
791.2575507086
 20
291.0055167764
 30
0.0
 11
730.0575507086
 21
291.0055167764
 31
0.0
  0
LINE
  5
2E3
330
1F
100
AcDbEntity
  8
0
  6
Continuous
 62
     7
370
    25
100
AcDbLine
 10
839.0575507086
 20
291.0055167764
 30
0.0
 11
797.2575507086
 21
291.0055167764
 31
0.0
  0
LINE
  5
2E4
330
1F
100
AcDbEntity
  8
0
  6
Continuous
 62
     7
370
    25
100
AcDbLine
 10
826.7225507086
 20
304.709062062
 30
0.0
 11
826.7225507086
 21
297.6887387645
 31
0.0
  0
LINE
  5
2E5
330
1F
100
AcDbEntity
  8
0
  6
Continuous
 62
     7
370
    25
100
AcDbLine
 10
826.7225507086
 20
297.6887387645
 30
0.0
 11
830.1491822666
 21
297.6887387645
 31
0.0
  0
LINE
  5
2E6
330
1F
100
AcDbEntity
  8
0
  6
Continuous
 62
     7
370
    25
100
AcDbLine
 10
826.2225507086
 20
297.6887387645
 30
0.0
 11
826.2225507086
 21
304.709062062
 31
0.0
  0
LINE
  5
2E7
330
1F
100
AcDbEntity
  8
0
  6
Continuous
 62
     7
370
    25
100
AcDbLine
 10
826.2225507086
 20
304.709062062
 30
0.0
 11
822.8097533646
 21
304.709062062
 31
0.0
  0
LINE
  5
2E8
330
1F
100
AcDbEntity
  8
0
  6
Continuous
 62
     7
370
    25
100
AcDbLine
 10
822.8097533646
 20
304.709062062
 30
0.0
 11
822.8097533646
 21
297.6887387645
 31
0.0
  0
LINE
  5
2E9
330
1F
100
AcDbEntity
  8
0
  6
Continuous
 62
     7
370
    25
100
AcDbLine
 10
822.8097533646
 20
297.6887387645
 30
0.0
 11
826.2225507086
 21
297.6887387645
 31
0.0
  0
LINE
  5
2EA
330
1F
100
AcDbEntity
  8
0
  6
Continuous
 62
     7
370
    25
100
AcDbLine
 10
830.5725507086
 20
305.1272559068
 30
0.0
 11
822.3725507086
 21
305.1272559068
 31
0.0
  0
LINE
  5
2EB
330
1F
100
AcDbEntity
  8
0
  6
Continuous
 62
     7
370
    25
100
AcDbLine
 10
830.5725507086
 20
297.283777646
 30
0.0
 11
830.5725507086
 21
305.1272559068
 31
0.0
  0
LINE
  5
2EC
330
1F
100
AcDbEntity
  8
0
  6
Continuous
 62
     7
370
    25
100
AcDbLine
 10
822.3725507086
 20
297.283777646
 30
0.0
 11
830.5725507086
 21
297.283777646
 31
0.0
  0
LINE
  5
2ED
330
1F
100
AcDbEntity
  8
0
  6
Continuous
 62
     7
370
    25
100
AcDbLine
 10
822.3725507086
 20
305.1272559068
 30
0.0
 11
822.3725507086
 21
297.283777646
 31
0.0
  0
LINE
  5
2EE
330
1F
100
AcDbEntity
  8
0
  6
Continuous
 62
     7
370
    25
100
AcDbLine
 10
830.1491822666
 20
304.709062062
 30
0.0
 11
826.7225507086
 21
304.709062062
 31
0.0
  0
LINE
  5
2EF
330
1F
100
AcDbEntity
  8
0
  6
Continuous
 62
     7
370
    25
100
AcDbLine
 10
830.1491822666
 20
297.6887387645
 30
0.0
 11
830.1491822666
 21
304.709062062
 31
0.0
  0
LINE
  5
2F0
330
1F
100
AcDbEntity
  8
0
  6
Continuous
 62
     7
370
    25
100
AcDbLine
 10
826.7225507086
 20
325.409062062
 30
0.0
 11
826.7225507086
 21
318.3887387645
 31
0.0
  0
LINE
  5
2F1
330
1F
100
AcDbEntity
  8
0
  6
Continuous
 62
     7
370
    25
100
AcDbLine
 10
826.2225507086
 20
318.3887387645
 30
0.0
 11
826.2225507086
 21
325.409062062
 31
0.0
  0
LINE
  5
2F2
330
1F
100
AcDbEntity
  8
0
  6
Continuous
 62
     7
370
    25
100
AcDbLine
 10
826.2225507086
 20
325.409062062
 30
0.0
 11
822.8097533646
 21
325.409062062
 31
0.0
  0
LINE
  5
2F3
330
1F
100
AcDbEntity
  8
0
  6
Continuous
 62
     7
370
    25
100
AcDbLine
 10
822.8097533646
 20
325.409062062
 30
0.0
 11
822.8097533646
 21
318.3887387645
 31
0.0
  0
LINE
  5
2F4
330
1F
100
AcDbEntity
  8
0
  6
Continuous
 62
     7
370
    25
100
AcDbLine
 10
822.8097533646
 20
318.3887387645
 30
0.0
 11
826.2225507086
 21
318.3887387645
 31
0.0
  0
LINE
  5
2F5
330
1F
100
AcDbEntity
  8
0
  6
Continuous
 62
     7
370
    25
100
AcDbLine
 10
830.5725507086
 20
317.983777646
 30
0.0
 11
830.5725507086
 21
325.8272559068
 31
0.0
  0
LINE
  5
2F6
330
1F
100
AcDbEntity
  8
0
  6
Continuous
 62
     7
370
    25
100
AcDbLine
 10
822.3725507086
 20
317.983777646
 30
0.0
 11
830.5725507086
 21
317.983777646
 31
0.0
  0
LINE
  5
2F7
330
1F
100
AcDbEntity
  8
0
  6
Continuous
 62
     7
370
    25
100
AcDbLine
 10
822.3725507086
 20
325.8272559068
 30
0.0
 11
822.3725507086
 21
317.983777646
 31
0.0
  0
LINE
  5
2F8
330
1F
100
AcDbEntity
  8
0
  6
Continuous
 62
     7
370
    25
100
AcDbLine
 10
830.1491822666
 20
325.409062062
 30
0.0
 11
826.7225507086
 21
325.409062062
 31
0.0
  0
LINE
  5
2F9
330
1F
100
AcDbEntity
  8
0
  6
Continuous
 62
     7
370
    25
100
AcDbLine
 10
830.1491822666
 20
318.3887387645
 30
0.0
 11
830.1491822666
 21
325.409062062
 31
0.0
  0
LINE
  5
2FA
330
1F
100
AcDbEntity
  8
0
  6
Continuous
 62
     7
370
    25
100
AcDbLine
 10
826.7225507086
 20
318.3887387645
 30
0.0
 11
830.1491822666
 21
318.3887387645
 31
0.0
  0
LINE
  5
2FB
330
1F
100
AcDbEntity
  8
0
  6
Continuous
 62
     7
370
    25
100
AcDbLine
 10
830.5725507086
 20
325.8272559068
 30
0.0
 11
822.3725507086
 21
325.8272559068
 31
0.0
  0
CIRCLE
  5
2FC
330
1F
100
AcDbEntity
  8
0
  6
Continuous
 62
     7
370
    25
100
AcDbCircle
 10
828.4358664876
 20
321.8989004132
 30
0.0
 40
0.5
  0
CIRCLE
  5
2FD
330
1F
100
AcDbEntity
  8
0
  6
Continuous
 62
     7
370
    25
100
AcDbCircle
 10
828.4358664876
 20
301.1989004132
 30
0.0
 40
0.5
  0
CIRCLE
  5
2FE
330
1F
100
AcDbEntity
  8
0
  6
Continuous
 62
     7
370
    25
100
AcDbCircle
 10
824.5161520366
 20
301.1989004132
 30
0.0
 40
0.4999999999998863
  0
CIRCLE
  5
2FF
330
1F
100
AcDbEntity
  8
0
  6
Continuous
 62
     7
370
    25
100
AcDbCircle
 10
824.5161520366
 20
321.8989004132
 30
0.0
 40
0.4999999999998863
  0
LINE
  5
300
330
1F
100
AcDbEntity
  8
0
  6
Continuous
 62
     7
370
    25
100
AcDbLine
 10
818.2091050893
 20
324.0937141672
 30
0.0
 11
801.3075060203
 21
324.0937141672
 31
0.0
  0
LINE
  5
301
330
1F
100
AcDbEntity
  8
0
  6
Continuous
 62
     7
370
    25
100
AcDbLine
 10
801.3075060203
 20
297.8568571863
 30
0.0
 11
818.2091050893
 21
297.8568571863
 31
0.0
  0
LINE
  5
302
330
1F
100
AcDbEntity
  8
0
  6
Continuous
 62
     7
370
    25
100
AcDbLine
 10
801.3075060203
 20
324.0937141672
 30
0.0
 11
801.3075060203
 21
297.8568571863
 31
0.0
  0
LINE
  5
303
330
1F
100
AcDbEntity
  8
0
  6
Continuous
 62
     7
370
    25
100
AcDbLine
 10
815.7139219886
 20
314.0513335564
 30
0.0
 11
815.7139219886
 21
320.8513335564
 31
0.0
  0
LINE
  5
304
330
1F
100
AcDbEntity
  8
0
  6
Continuous
 62
     7
370
    25
100
AcDbLine
 10
815.7139219886
 20
320.8513335564
 30
0.0
 11
812.9072219886
 21
320.8513335564
 31
0.0
  0
LINE
  5
305
330
1F
100
AcDbEntity
  8
0
  6
Continuous
 62
     7
370
    25
100
AcDbLine
 10
812.9072219886
 20
320.8513335564
 30
0.0
 11
812.9072219886
 21
322.4513335564
 31
0.0
  0
LINE
  5
306
330
1F
100
AcDbEntity
  8
0
  6
Continuous
 62
     7
370
    25
100
AcDbLine
 10
812.9072219886
 20
322.4513335564
 30
0.0
 11
811.7876219886
 21
322.4513335564
 31
0.0
  0
LINE
  5
307
330
1F
100
AcDbEntity
  8
0
  6
Continuous
 62
     7
370
    25
100
AcDbLine
 10
811.7876219886
 20
322.4513335564
 30
0.0
 11
811.7876219886
 21
323.8737335564
 31
0.0
  0
LINE
  5
308
330
1F
100
AcDbEntity
  8
0
  6
Continuous
 62
     7
370
    25
100
AcDbLine
 10
811.7876219886
 20
323.8737335564
 30
0.0
 11
807.7276219886
 21
323.8737335564
 31
0.0
  0
LINE
  5
309
330
1F
100
AcDbEntity
  8
0
  6
Continuous
 62
     7
370
    25
100
AcDbLine
 10
807.7276219886
 20
323.8737335564
 30
0.0
 11
807.7276219886
 21
322.4513335564
 31
0.0
  0
LINE
  5
30A
330
1F
100
AcDbEntity
  8
0
  6
Continuous
 62
     7
370
    25
100
AcDbLine
 10
807.7276219886
 20
322.4513335564
 30
0.0
 11
806.6080219886
 21
322.4513335564
 31
0.0
  0
LINE
  5
30B
330
1F
100
AcDbEntity
  8
0
  6
Continuous
 62
     7
370
    25
100
AcDbLine
 10
806.6080219886
 20
322.4513335564
 30
0.0
 11
806.6080219886
 21
320.8513335564
 31
0.0
  0
LINE
  5
30C
330
1F
100
AcDbEntity
  8
0
  6
Continuous
 62
     7
370
    25
100
AcDbLine
 10
806.6080219886
 20
320.8513335564
 30
0.0
 11
803.8013219886
 21
320.8513335564
 31
0.0
  0
LINE
  5
30D
330
1F
100
AcDbEntity
  8
0
  6
Continuous
 62
     7
370
    25
100
AcDbLine
 10
803.8013219886
 20
320.8513335564
 30
0.0
 11
803.8013219886
 21
314.0513335564
 31
0.0
  0
LINE
  5
30E
330
1F
100
AcDbEntity
  8
0
  6
Continuous
 62
     7
370
    25
100
AcDbLine
 10
803.8013219886
 20
314.0513335564
 30
0.0
 11
815.7139219886
 21
314.0513335564
 31
0.0
  0
LINE
  5
30F
330
1F
100
AcDbEntity
  8
0
  6
Continuous
 62
     7
370
    25
100
AcDbLine
 10
815.7139219886
 20
300.5961335564
 30
0.0
 11
815.7139219886
 21
307.3961335564
 31
0.0
  0
LINE
  5
310
330
1F
100
AcDbEntity
  8
0
  6
Continuous
 62
     7
370
    25
100
AcDbLine
 10
815.7139219886
 20
307.3961335564
 30
0.0
 11
803.8013219886
 21
307.3961335564
 31
0.0
  0
LINE
  5
311
330
1F
100
AcDbEntity
  8
0
  6
Continuous
 62
     7
370
    25
100
AcDbLine
 10
803.8013219886
 20
307.3961335564
 30
0.0
 11
803.8013219886
 21
300.5961335564
 31
0.0
  0
LINE
  5
312
330
1F
100
AcDbEntity
  8
0
  6
Continuous
 62
     7
370
    25
100
AcDbLine
 10
803.8013219886
 20
300.5961335564
 30
0.0
 11
806.6080219886
 21
300.5961335564
 31
0.0
  0
LINE
  5
313
330
1F
100
AcDbEntity
  8
0
  6
Continuous
 62
     7
370
    25
100
AcDbLine
 10
806.6080219886
 20
300.5961335564
 30
0.0
 11
806.6080219886
 21
298.9961335593
 31
0.0
  0
LINE
  5
314
330
1F
100
AcDbEntity
  8
0
  6
Continuous
 62
     7
370
    25
100
AcDbLine
 10
806.6080219886
 20
298.9961335593
 30
0.0
 11
807.7276219886
 21
298.9961335593
 31
0.0
  0
LINE
  5
315
330
1F
100
AcDbEntity
  8
0
  6
Continuous
 62
     7
370
    25
100
AcDbLine
 10
807.7276219886
 20
298.9961335593
 30
0.0
 11
807.7276219886
 21
298.5087335564
 31
0.0
  0
LINE
  5
316
330
1F
100
AcDbEntity
  8
0
  6
Continuous
 62
     7
370
    25
100
AcDbLine
 10
807.7276219886
 20
298.5087335564
 30
0.0
 11
811.7876219886
 21
298.5087335564
 31
0.0
  0
LINE
  5
317
330
1F
100
AcDbEntity
  8
0
  6
Continuous
 62
     7
370
    25
100
AcDbLine
 10
811.7876219886
 20
298.5087335564
 30
0.0
 11
811.7876219886
 21
298.9961335593
 31
0.0
  0
LINE
  5
318
330
1F
100
AcDbEntity
  8
0
  6
Continuous
 62
     7
370
    25
100
AcDbLine
 10
811.7876219886
 20
298.9961335593
 30
0.0
 11
812.9072219886
 21
298.9961335593
 31
0.0
  0
LINE
  5
319
330
1F
100
AcDbEntity
  8
0
  6
Continuous
 62
     7
370
    25
100
AcDbLine
 10
812.9072219886
 20
298.9961335593
 30
0.0
 11
812.9072219886
 21
300.5961335564
 31
0.0
  0
LINE
  5
31A
330
1F
100
AcDbEntity
  8
0
  6
Continuous
 62
     7
370
    25
100
AcDbLine
 10
812.9072219886
 20
300.5961335564
 30
0.0
 11
815.7139219886
 21
300.5961335564
 31
0.0
  0
LINE
  5
31B
330
1F
100
AcDbEntity
  8
0
  6
Continuous
 62
     7
370
    25
100
AcDbLine
 10
818.2091050893
 20
297.8568571863
 30
0.0
 11
818.2091050893
 21
324.0937141672
 31
0.0
  0
LINE
  5
31C
330
1F
100
AcDbEntity
  8
0
  6
Continuous
 62
     7
370
    25
100
AcDbLine
 10
755.7928885286
 20
298.1965532641
 30
0.0
 11
779.9228885286
 21
298.196553262
 31
0.0
  0
LINE
  5
31D
330
1F
100
AcDbEntity
  8
0
  6
Continuous
 62
     7
370
    25
100
AcDbLine
 10
755.7928885286
 20
310.4665532564
 30
0.0
 11
755.7928885286
 21
298.1965532641
 31
0.0
  0
LINE
  5
31E
330
1F
100
AcDbEntity
  8
0
  6
Continuous
 62
     7
370
    25
100
AcDbLine
 10
767.2377885131
 20
302.2165532575
 30
0.0
 11
767.2377885131
 21
304.7565532575
 31
0.0
  0
LINE
  5
31F
330
1F
100
AcDbEntity
  8
0
  6
Continuous
 62
     7
370
    25
100
AcDbLine
 10
767.2377885131
 20
304.7565532575
 30
0.0
 11
766.7653885074
 21
304.7565532715
 31
0.0
  0
LINE
  5
320
330
1F
100
AcDbEntity
  8
0
  6
Continuous
 62
     7
370
    25
100
AcDbLine
 10
766.7653885074
 20
304.7565532715
 30
0.0
 11
766.765388508
 21
306.9765532703
 31
0.0
  0
LINE
  5
321
330
1F
100
AcDbEntity
  8
0
  6
Continuous
 62
     7
370
    25
100
AcDbLine
 10
766.765388508
 20
306.9765532703
 30
0.0
 11
765.1653885031
 21
306.976553274
 31
0.0
  0
LINE
  5
322
330
1F
100
AcDbEntity
  8
0
  6
Continuous
 62
     7
370
    25
100
AcDbLine
 10
765.1653885031
 20
306.976553274
 30
0.0
 11
765.1653885065
 21
308.6265532778
 31
0.0
  0
LINE
  5
323
330
1F
100
AcDbEntity
  8
0
  6
Continuous
 62
     7
370
    25
100
AcDbLine
 10
765.1653885065
 20
308.6265532778
 30
0.0
 11
763.8553885078
 21
308.6265532758
 31
0.0
  0
LINE
  5
324
330
1F
100
AcDbEntity
  8
0
  6
Continuous
 62
     7
370
    25
100
AcDbLine
 10
763.8553885078
 20
308.6265532758
 30
0.0
 11
763.8553885145
 21
309.9658069515
 31
0.0
  0
LINE
  5
325
330
1F
100
AcDbEntity
  8
0
  6
Continuous
 62
     7
370
    25
100
AcDbLine
 10
763.8553885145
 20
309.9658069515
 30
0.0
 11
759.7953885109
 21
309.9658069532
 31
0.0
  0
LINE
  5
326
330
1F
100
AcDbEntity
  8
0
  6
Continuous
 62
     7
370
    25
100
AcDbLine
 10
759.7953885109
 20
309.9658069532
 30
0.0
 11
759.7953885036
 21
308.6265532793
 31
0.0
  0
LINE
  5
327
330
1F
100
AcDbEntity
  8
0
  6
Continuous
 62
     7
370
    25
100
AcDbLine
 10
759.7953885036
 20
308.6265532793
 30
0.0
 11
758.4853885038
 21
308.6265532747
 31
0.0
  0
LINE
  5
328
330
1F
100
AcDbEntity
  8
0
  6
Continuous
 62
     7
370
    25
100
AcDbLine
 10
758.4853885038
 20
308.6265532747
 30
0.0
 11
758.4853885059
 21
306.9765532698
 31
0.0
  0
LINE
  5
329
330
1F
100
AcDbEntity
  8
0
  6
Continuous
 62
     7
370
    25
100
AcDbLine
 10
758.4853885059
 20
306.9765532698
 30
0.0
 11
756.8853885032
 21
306.9765532726
 31
0.0
  0
LINE
  5
32A
330
1F
100
AcDbEntity
  8
0
  6
Continuous
 62
     7
370
    25
100
AcDbLine
 10
756.8853885032
 20
306.9765532726
 30
0.0
 11
756.8853885062
 21
304.7565532715
 31
0.0
  0
LINE
  5
32B
330
1F
100
AcDbEntity
  8
0
  6
Continuous
 62
     7
370
    25
100
AcDbLine
 10
756.8853885062
 20
304.7565532715
 30
0.0
 11
756.5653885219
 21
304.7565532575
 31
0.0
  0
LINE
  5
32C
330
1F
100
AcDbEntity
  8
0
  6
Continuous
 62
     7
370
    25
100
AcDbLine
 10
756.5653885219
 20
304.7565532575
 30
0.0
 11
756.5653885219
 21
302.2165532575
 31
0.0
  0
LINE
  5
32D
330
1F
100
AcDbEntity
  8
0
  6
Continuous
 62
     7
370
    25
100
AcDbLine
 10
756.5653885219
 20
302.2165532575
 30
0.0
 11
756.8853885062
 21
302.216553275
 31
0.0
  0
LINE
  5
32E
330
1F
100
AcDbEntity
  8
0
  6
Continuous
 62
     7
370
    25
100
AcDbLine
 10
756.8853885062
 20
302.216553275
 30
0.0
 11
756.8853885085
 21
300.1365532767
 31
0.0
  0
LINE
  5
32F
330
1F
100
AcDbEntity
  8
0
  6
Continuous
 62
     7
370
    25
100
AcDbLine
 10
756.8853885085
 20
300.1365532767
 30
0.0
 11
759.00598851
 21
300.136553288
 31
0.0
  0
LINE
  5
330
330
1F
100
AcDbEntity
  8
0
  6
Continuous
 62
     7
370
    25
100
AcDbLine
 10
759.00598851
 20
300.136553288
 30
0.0
 11
759.0059885302
 21
298.7465532545
 31
0.0
  0
LINE
  5
331
330
1F
100
AcDbEntity
  8
0
  6
Continuous
 62
     7
370
    25
100
AcDbLine
 10
759.0059885302
 20
298.7465532545
 30
0.0
 11
764.6447885271
 21
298.7465532545
 31
0.0
  0
LINE
  5
332
330
1F
100
AcDbEntity
  8
0
  6
Continuous
 62
     7
370
    25
100
AcDbLine
 10
764.6447885271
 20
298.7465532545
 30
0.0
 11
764.6447885046
 21
300.1365532878
 31
0.0
  0
LINE
  5
333
330
1F
100
AcDbEntity
  8
0
  6
Continuous
 62
     7
370
    25
100
AcDbLine
 10
764.6447885046
 20
300.1365532878
 30
0.0
 11
766.7653885068
 21
300.1365532876
 31
0.0
  0
LINE
  5
334
330
1F
100
AcDbEntity
  8
0
  6
Continuous
 62
     7
370
    25
100
AcDbLine
 10
766.7653885068
 20
300.1365532876
 30
0.0
 11
766.7653885074
 21
302.216553275
 31
0.0
  0
LINE
  5
335
330
1F
100
AcDbEntity
  8
0
  6
Continuous
 62
     7
370
    25
100
AcDbLine
 10
766.7653885074
 20
302.216553275
 30
0.0
 11
767.2377885131
 21
302.2165532575
 31
0.0
  0
LINE
  5
336
330
1F
100
AcDbEntity
  8
0
  6
Continuous
 62
     7
370
    25
100
AcDbLine
 10
777.2303885065
 20
308.6265532778
 30
0.0
 11
775.9203885078
 21
308.6265532758
 31
0.0
  0
LINE
  5
337
330
1F
100
AcDbEntity
  8
0
  6
Continuous
 62
     7
370
    25
100
AcDbLine
 10
775.9203885078
 20
308.6265532758
 30
0.0
 11
775.9203885145
 21
309.9658069515
 31
0.0
  0
LINE
  5
338
330
1F
100
AcDbEntity
  8
0
  6
Continuous
 62
     7
370
    25
100
AcDbLine
 10
775.9203885145
 20
309.9658069515
 30
0.0
 11
771.8603885109
 21
309.9658069532
 31
0.0
  0
LINE
  5
339
330
1F
100
AcDbEntity
  8
0
  6
Continuous
 62
     7
370
    25
100
AcDbLine
 10
771.8603885109
 20
309.9658069532
 30
0.0
 11
771.8603885036
 21
308.6265532793
 31
0.0
  0
LINE
  5
33A
330
1F
100
AcDbEntity
  8
0
  6
Continuous
 62
     7
370
    25
100
AcDbLine
 10
771.8603885036
 20
308.6265532793
 30
0.0
 11
770.5503885038
 21
308.6265532747
 31
0.0
  0
LINE
  5
33B
330
1F
100
AcDbEntity
  8
0
  6
Continuous
 62
     7
370
    25
100
AcDbLine
 10
770.5503885038
 20
308.6265532747
 30
0.0
 11
770.5503885059
 21
306.9765532698
 31
0.0
  0
LINE
  5
33C
330
1F
100
AcDbEntity
  8
0
  6
Continuous
 62
     7
370
    25
100
AcDbLine
 10
770.5503885059
 20
306.9765532698
 30
0.0
 11
768.9503885032
 21
306.9765532726
 31
0.0
  0
LINE
  5
33D
330
1F
100
AcDbEntity
  8
0
  6
Continuous
 62
     7
370
    25
100
AcDbLine
 10
768.9503885032
 20
306.9765532726
 30
0.0
 11
768.9503885062
 21
304.7565532715
 31
0.0
  0
LINE
  5
33E
330
1F
100
AcDbEntity
  8
0
  6
Continuous
 62
     7
370
    25
100
AcDbLine
 10
768.9503885062
 20
304.7565532715
 30
0.0
 11
768.4779885219
 21
304.7565532575
 31
0.0
  0
LINE
  5
33F
330
1F
100
AcDbEntity
  8
0
  6
Continuous
 62
     7
370
    25
100
AcDbLine
 10
768.4779885219
 20
304.7565532575
 30
0.0
 11
768.4779885219
 21
302.2165532575
 31
0.0
  0
LINE
  5
340
330
1F
100
AcDbEntity
  8
0
  6
Continuous
 62
     7
370
    25
100
AcDbLine
 10
768.4779885219
 20
302.2165532575
 30
0.0
 11
768.9503885062
 21
302.216553275
 31
0.0
  0
LINE
  5
341
330
1F
100
AcDbEntity
  8
0
  6
Continuous
 62
     7
370
    25
100
AcDbLine
 10
768.9503885062
 20
302.216553275
 30
0.0
 11
768.9503885088
 21
300.136553275
 31
0.0
  0
LINE
  5
342
330
1F
100
AcDbEntity
  8
0
  6
Continuous
 62
     7
370
    25
100
AcDbLine
 10
768.9503885088
 20
300.136553275
 30
0.0
 11
771.0709885079
 21
300.136553288
 31
0.0
  0
LINE
  5
343
330
1F
100
AcDbEntity
  8
0
  6
Continuous
 62
     7
370
    25
100
AcDbLine
 10
771.0709885079
 20
300.136553288
 30
0.0
 11
771.0709885302
 21
298.7465532545
 31
0.0
  0
LINE
  5
344
330
1F
100
AcDbEntity
  8
0
  6
Continuous
 62
     7
370
    25
100
AcDbLine
 10
771.0709885302
 20
298.7465532545
 30
0.0
 11
776.7097885271
 21
298.7465532545
 31
0.0
  0
LINE
  5
345
330
1F
100
AcDbEntity
  8
0
  6
Continuous
 62
     7
370
    25
100
AcDbLine
 10
776.7097885271
 20
298.7465532545
 30
0.0
 11
776.7097885057
 21
300.136553288
 31
0.0
  0
LINE
  5
346
330
1F
100
AcDbEntity
  8
0
  6
Continuous
 62
     7
370
    25
100
AcDbLine
 10
776.7097885057
 20
300.136553288
 30
0.0
 11
778.8303885068
 21
300.1365532879
 31
0.0
  0
LINE
  5
347
330
1F
100
AcDbEntity
  8
0
  6
Continuous
 62
     7
370
    25
100
AcDbLine
 10
778.8303885068
 20
300.1365532879
 30
0.0
 11
778.8303885074
 21
302.216553275
 31
0.0
  0
LINE
  5
348
330
1F
100
AcDbEntity
  8
0
  6
Continuous
 62
     7
370
    25
100
AcDbLine
 10
778.8303885074
 20
302.216553275
 30
0.0
 11
779.1503885131
 21
302.2165532575
 31
0.0
  0
LINE
  5
349
330
1F
100
AcDbEntity
  8
0
  6
Continuous
 62
     7
370
    25
100
AcDbLine
 10
779.1503885131
 20
302.2165532575
 30
0.0
 11
779.1503885131
 21
304.7565532575
 31
0.0
  0
LINE
  5
34A
330
1F
100
AcDbEntity
  8
0
  6
Continuous
 62
     7
370
    25
100
AcDbLine
 10
779.1503885131
 20
304.7565532575
 30
0.0
 11
778.8303885074
 21
304.7565532715
 31
0.0
  0
LINE
  5
34B
330
1F
100
AcDbEntity
  8
0
  6
Continuous
 62
     7
370
    25
100
AcDbLine
 10
778.8303885074
 20
304.7565532715
 30
0.0
 11
778.830388508
 21
306.9765532703
 31
0.0
  0
LINE
  5
34C
330
1F
100
AcDbEntity
  8
0
  6
Continuous
 62
     7
370
    25
100
AcDbLine
 10
778.830388508
 20
306.9765532703
 30
0.0
 11
777.2303885031
 21
306.976553274
 31
0.0
  0
LINE
  5
34D
330
1F
100
AcDbEntity
  8
0
  6
Continuous
 62
     7
370
    25
100
AcDbLine
 10
777.2303885031
 20
306.976553274
 30
0.0
 11
777.2303885065
 21
308.6265532778
 31
0.0
  0
LINE
  5
34E
330
1F
100
AcDbEntity
  8
0
  6
Continuous
 62
     7
370
    25
100
AcDbLine
 10
779.9228885286
 20
298.196553262
 30
0.0
 11
779.9228885286
 21
310.4665532564
 31
0.0
  0
LINE
  5
34F
330
1F
100
AcDbEntity
  8
0
  6
Continuous
 62
     7
370
    25
100
AcDbLine
 10
779.9228885286
 20
310.4665532564
 30
0.0
 11
755.7928885286
 21
310.4665532564
 31
0.0
  0
LINE
  5
350
330
1F
100
AcDbEntity
  8
0
  6
Continuous
 62
     7
370
    25
100
AcDbLine
 10
791.2575507086
 20
292.0055167764
 30
0.0
 11
797.2575507086
 21
292.0055167764
 31
0.0
  0
LINE
  5
351
330
1F
100
AcDbEntity
  8
0
  6
Continuous
 62
     7
370
    25
100
AcDbLine
 10
791.2575507086
 20
291.0055167764
 30
0.0
 11
797.2575507086
 21
291.0055167764
 31
0.0
  0
LINE
  5
352
330
1F
100
AcDbEntity
  8
0
  6
Continuous
 62
     7
370
    25
100
AcDbLine
 10
840.2575507086
 20
292.2055167764
 30
0.0
 11
840.2575507086
 21
311.4065269032
 31
0.0
  0
LINE
  5
353
330
1F
100
AcDbEntity
  8
0
  6
Continuous
 62
     7
370
    25
100
AcDbLine
 10
840.2575507086
 20
292.2055167764
 30
0.0
 11
854.0575507086
 21
292.2055167764
 31
0.0
  0
LINE
  5
354
330
1F
100
AcDbEntity
  8
0
  6
Continuous
 62
     7
370
    25
100
AcDbLine
 10
854.0575507086
 20
292.2055167764
 30
0.0
 11
854.0575507086
 21
291.0055167764
 31
0.0
  0
LINE
  5
355
330
1F
100
AcDbEntity
  8
0
  6
Continuous
 62
     7
370
    25
100
AcDbLine
 10
854.0575507086
 20
291.0055167764
 30
0.0
 11
839.0575507086
 21
291.0055167764
 31
0.0
  0
LINE
  5
356
330
1F
100
AcDbEntity
  8
0
  6
Continuous
 62
     7
370
    25
100
AcDbLine
 10
840.2575507086
 20
311.4065269032
 30
0.0
 11
840.2575507086
 21
312.9432104053
 31
0.0
  0
LINE
  5
357
330
1F
100
AcDbEntity
  8
0
  6
Continuous
 62
     7
370
    25
100
AcDbLine
 10
728.8575507086
 20
311.4065269032
 30
0.0
 11
728.8575507086
 21
312.9432104053
 31
0.0
  0
LINE
  5
358
330
1F
100
AcDbEntity
  8
0
  6
Continuous
 62
     7
370
    25
100
AcDbLine
 10
715.0575507086
 20
292.2055167764
 30
0.0
 11
715.0575507086
 21
291.0055167764
 31
0.0
  0
LINE
  5
359
330
1F
100
AcDbEntity
  8
0
  6
Continuous
 62
     7
370
    25
100
AcDbLine
 10
728.8575507086
 20
292.2055167764
 30
0.0
 11
715.0575507086
 21
292.2055167764
 31
0.0
  0
LINE
  5
35A
330
1F
100
AcDbEntity
  8
0
  6
Continuous
 62
     7
370
    25
100
AcDbLine
 10
728.8575507086
 20
292.2055167764
 30
0.0
 11
728.8575507086
 21
311.4065269032
 31
0.0
  0
LINE
  5
35B
330
1F
100
AcDbEntity
  8
0
  6
Continuous
 62
     7
370
    25
100
AcDbLine
 10
715.0575507086
 20
291.0055167764
 30
0.0
 11
730.0575507086
 21
291.0055167764
 31
0.0
  0
LINE
  5
35C
330
1F
100
AcDbEntity
  8
0
  6
Continuous
 62
     7
370
    25
100
AcDbLine
 10
840.2575507086
 20
312.9432104053
 30
0.0
 11
840.2575507086
 21
321.7820655949
 31
0.0
  0
LINE
  5
35D
330
1F
100
AcDbEntity
  8
0
  6
Continuous
 62
     7
370
    25
100
AcDbLine
 10
728.8575507086
 20
312.9432104053
 30
0.0
 11
728.8575507086
 21
321.7820655949
 31
0.0
  0
LINE
  5
35E
330
1F
100
AcDbEntity
  8
0
  6
Continuous
 62
     7
370
    25
100
AcDbLine
 10
840.2575507086
 20
322.2055167764
 30
0.0
 11
839.0575507086
 21
322.2055167764
 31
0.0
  0
LINE
  5
35F
330
1F
100
AcDbEntity
  8
0
  6
Continuous
 62
     7
370
    25
100
AcDbLine
 10
840.2575507086
 20
321.7820655949
 30
0.0
 11
840.2575507086
 21
322.2055167764
 31
0.0
  0
LINE
  5
360
330
1F
100
AcDbEntity
  8
0
  6
Continuous
 62
     7
370
    25
100
AcDbLine
 10
728.8575507086
 20
322.2055167764
 30
0.0
 11
730.0575507086
 21
322.2055167764
 31
0.0
  0
LINE
  5
361
330
1F
100
AcDbEntity
  8
0
  6
Continuous
 62
     7
370
    25
100
AcDbLine
 10
728.8575507086
 20
321.7820655949
 30
0.0
 11
728.8575507086
 21
322.2055167764
 31
0.0
  0
LINE
  5
362
330
1F
100
AcDbEntity
  8
0
  6
PHANTOM
 62
     1
370
    18
100
AcDbLine
 10
840.2575507086
 20
311.4065269032
 30
0.0
 11
839.0575507086
 21
311.4065269032
 31
0.0
  0
LINE
  5
363
330
1F
100
AcDbEntity
  8
0
  6
PHANTOM
 62
     1
370
    18
100
AcDbLine
 10
840.2575507086
 20
312.9432104053
 30
0.0
 11
839.0575507086
 21
312.9432104053
 31
0.0
  0
LINE
  5
364
330
1F
100
AcDbEntity
  8
0
  6
PHANTOM
 62
     1
370
    18
100
AcDbLine
 10
728.8575507086
 20
311.4065269032
 30
0.0
 11
730.0575507086
 21
311.4065269032
 31
0.0
  0
LINE
  5
365
330
1F
100
AcDbEntity
  8
0
  6
PHANTOM
 62
     1
370
    18
100
AcDbLine
 10
728.8575507086
 20
312.9432104053
 30
0.0
 11
730.0575507086
 21
312.9432104053
 31
0.0
  0
LINE
  5
366
330
1F
100
AcDbEntity
  8
0
  6
PHANTOM
 62
     1
370
    18
100
AcDbLine
 10
840.2575507086
 20
321.7820655949
 30
0.0
 11
839.0575507086
 21
321.7820655949
 31
0.0
  0
LINE
  5
367
330
1F
100
AcDbEntity
  8
0
  6
PHANTOM
 62
     1
370
    18
100
AcDbLine
 10
728.8575507086
 20
321.7820655949
 30
0.0
 11
730.0575507086
 21
321.7820655949
 31
0.0
  0
MTEXT
  5
368
330
1F
100
AcDbEntity
  8
SLD-0
100
AcDbMText
 10
768.6490574848
 20
351.7331044049
 30
0.0
 40
4.7625
 41
0.0
 71
     1
 72
     1
  1
EXHAUST
  7
SLDTEXTSTYLE0
 73
     1
 44
1.0
  0
LEADER
  5
369
330
1F
100
AcDbEntity
  8
SLD-0
100
AcDbLeader
  3
SLDDIMSTYLE3
 76
     3
 10
754.3449340331
 20
329.4555167764
 30
0.0
 10
763.5869565217
 20
349.4826675121
 30
0.0
 10
767.5869565217
 20
349.4826675121
 30
0.0
  0
SPLINE
  5
36A
330
1F
100
AcDbEntity
  8
0
  6
Continuous
 62
     7
370
    25
100
AcDbSpline
210
0.0
220
0.0
230
1.0
 70
     8
 71
     3
 72
    16
 73
    12
 74
     0
 42
0.00000001
 43
0.00000001
 40
0.0
 40
0.0
 40
0.0
 40
0.0
 40
0.065816747514508
 40
0.192815261292546
 40
0.3217651109595535
 40
0.4524545878912742
 40
0.5840662761972948
 40
0.7156161637162595
 40
0.8458854315848594
 40
0.9662888774200064
 40
1.0
 40
1.0
 40
1.0
 40
1.0
 10
611.1387684358505
 20
95.19252154421027
 30
0.0
 10
611.2126713289999
 20
95.1471892198976
 30
0.0
 10
611.4291755804409
 20
95.0143846634977
 30
0.0
 10
611.809114464276
 20
94.70171681809198
 30
0.0
 10
612.2490965192362
 20
94.23017879756543
 30
0.0
 10
612.6532167412068
 20
93.67109209240424
 30
0.0
 10
612.9948903780862
 20
93.05618716825865
 30
0.0
 10
613.2538775569976
 20
92.42070767376536
 30
0.0
 10
613.412894943771
 20
91.8180073076194
 30
0.0
 10
613.4636749869728
 20
91.40335312286102
 30
0.0
 10
613.4665303441894
 20
91.20334159026898
 30
0.0
 10
613.4671549269146
 20
91.15959093540252
 30
0.0
  0
LINE
  5
36B
330
1F
100
AcDbEntity
  8
0
  6
Continuous
 62
     7
370
    25
100
AcDbLine
 10
613.4671549269
 20
91.1595909354
 30
0.0
 11
613.4671549269
 21
82.0987702188
 31
0.0
  0
LINE
  5
36C
330
1F
100
AcDbEntity
  8
0
  6
Continuous
 62
     7
370
    25
100
AcDbLine
 10
548.1379636401
 20
131.5621120043
 30
0.0
 11
611.1387684359
 21
95.1925215442
 31
0.0
  0
SPLINE
  5
36D
330
1F
100
AcDbEntity
  8
0
  6
Continuous
 62
     7
370
    25
100
AcDbSpline
210
0.0
220
0.0
230
1.0
 70
     8
 71
     3
 72
    21
 73
    17
 74
     0
 42
0.00000001
 43
0.00000001
 40
0.0
 40
0.0
 40
0.0
 40
0.0
 40
0.031034968775714
 40
0.0985828024700626
 40
0.1666655250477481
 40
0.2375026777331843
 40
0.3128422657418234
 40
0.3927135988677621
 40
0.4747461821652558
 40
0.5577141471595538
 40
0.6426017893938282
 40
0.7308930610751988
 40
0.8084511526675626
 40
0.8816354449809976
 40
0.951778345465583
 40
1.0
 40
1.0
 40
1.0
 40
1.0
 10
605.3632947884087
 20
92.9687816021891
 30
0.0
 10
605.2983723588756
 20
92.9020770193219
 30
0.0
 10
605.0921457925525
 20
92.6901894300619
 30
0.0
 10
604.8616676088361
 20
92.2412543468678
 30
0.0
 10
604.6727730060715
 20
91.65655745813487
 30
0.0
 10
604.6044150981805
 20
91.01781344610546
 30
0.0
 10
604.6528367902822
 20
90.33511182582747
 30
0.0
 10
604.8273271969632
 20
89.6219455568425
 30
0.0
 10
605.1269839644444
 20
88.90983907873407
 30
0.0
 10
605.5426335122802
 20
88.23448966208332
 30
0.0
 10
606.0660211516771
 20
87.62499563269438
 30
0.0
 10
606.661196176293
 20
87.1390616997802
 30
0.0
 10
607.2944877310364
 20
86.79809691308225
 30
0.0
 10
607.9262501666765
 20
86.61273751955493
 30
0.0
 10
608.5012685733143
 20
86.55478609796636
 30
0.0
 10
608.8498305649938
 20
86.622194469677
 30
0.0
 10
608.9918345284599
 20
86.64965660319181
 30
0.0
  0
SPLINE
  5
36E
330
1F
100
AcDbEntity
  8
0
  6
Continuous
 62
     7
370
    25
100
AcDbSpline
210
0.0
220
0.0
230
1.0
 70
     8
 71
     3
 72
    12
 73
     8
 74
     0
 42
0.00000001
 43
0.00000001
 40
0.0
 40
0.0
 40
0.0
 40
0.0
 40
0.1342479937116119
 40
0.3885377015746617
 40
0.6439625161101401
 40
0.9119279028168306
 40
1.0
 40
1.0
 40
1.0
 40
1.0
 10
613.4671549269146
 20
82.09877021881734
 30
0.0
 10
613.4648658375237
 20
82.01781695570537
 30
0.0
 10
613.4582408034648
 20
81.78352373526396
 30
0.0
 10
613.3909498584427
 20
81.47714669945705
 30
0.0
 10
613.2731546063503
 20
81.24979354573837
 30
0.0
 10
613.1996650653685
 20
81.16412991510505
 30
0.0
 10
613.1459969095289
 20
81.14328609411221
 30
0.0
 10
613.1327211527598
 20
81.13813001052209
 30
0.0
  0
SPLINE
  5
36F
330
1F
100
AcDbEntity
  8
0
  6
Continuous
 62
     7
370
    25
100
AcDbSpline
210
0.0
220
0.0
230
1.0
 70
     8
 71
     3
 72
    11
 73
     7
 74
     0
 42
0.00000001
 43
0.00000001
 40
0.0
 40
0.0
 40
0.0
 40
0.0
 40
0.2350177385482624
 40
0.4925516766361008
 40
0.7375251982005289
 40
1.0
 40
1.0
 40
1.0
 40
1.0
 10
547.1439296557852
 20
131.7554540510993
 30
0.0
 10
547.1736791428116
 20
131.7729422634658
 30
0.0
 10
547.2360283076208
 20
131.8095941705758
 30
0.0
 10
547.4279950806858
 20
131.8213191356949
 30
0.0
 10
547.7345556939565
 20
131.7663770367293
 30
0.0
 10
548.0004376751448
 20
131.6317480785518
 30
0.0
 10
548.1379636400586
 20
131.5621120043209
 30
0.0
  0
LINE
  5
370
330
1F
100
AcDbEntity
  8
0
  6
Continuous
 62
     7
370
    25
100
AcDbLine
 10
709.7903428291
 20
135.3364516193
 30
0.0
 11
708.9418146917
 21
135.8262964864
 31
0.0
  0
LINE
  5
371
330
1F
100
AcDbEntity
  8
0
  6
Continuous
 62
     7
370
    25
100
AcDbLine
 10
540.8938990484
 20
105.8308366952
 30
0.0
 11
617.9685381978
 21
61.3365946009
 31
0.0
  0
LINE
  5
372
330
1F
100
AcDbEntity
  8
0
  6
Continuous
 62
     7
370
    25
100
AcDbLine
 10
540.8938990484
 20
140.4521671192
 30
0.0
 11
540.8938990484
 21
105.8308366952
 31
0.0
  0
LINE
  5
373
330
1F
100
AcDbEntity
  8
0
  6
Continuous
 62
     7
370
    25
100
AcDbLine
 10
617.9685381978
 20
95.9579250248
 30
0.0
 11
540.8938990484
 21
140.4521671192
 31
0.0
  0
LINE
  5
374
330
1F
100
AcDbEntity
  8
0
  6
Continuous
 62
     7
370
    25
100
AcDbLine
 10
617.9685381978
 20
61.3365946009
 30
0.0
 11
617.9685381978
 21
95.9579250248
 31
0.0
  0
LWPOLYLINE
  5
375
330
1F
100
AcDbEntity
  8
0
  6
Continuous
 62
     7
370
    25
100
AcDbPolyline
 90
       20
 70
   128
 43
0.0
 10
547.187149401
 20
113.629391964
 10
547.1239329579
 20
114.1033511473
 10
546.9411341111
 20
114.5989376505
 10
546.6585619521
 20
115.0624469861
 10
546.3068375589
 20
115.4436507256
 10
545.924075727
 20
115.7012395287
 10
545.5517546401
 20
115.8072996517
 10
545.2302210651
 20
115.7503378347
 10
544.994318154
 20
115.5365267743
 10
544.8696096476
 20
115.1890362165
 10
544.8696096476
 20
114.7455221553
 10
544.994318154
 20
114.2540462209
 10
545.2302210651
 20
113.7678674568
 10
545.5517546401
 20
113.339670876
 10
545.924075727
 20
113.0158582223
 10
546.3068375589
 20
112.8315196209
 10
546.6585619521
 20
112.8066310199
 10
546.9411341111
 20
112.9438894851
 10
547.1239329579
 20
113.2284209323
 10
547.187149401
 20
113.629391964
  0
LWPOLYLINE
  5
376
330
1F
100
AcDbEntity
  8
0
  6
Continuous
 62
     7
370
    25
100
AcDbPolyline
 90
       20
 70
   128
 43
0.0
 10
550.3691299163
 20
111.7924737124
 10
550.3059134732
 20
112.2664328957
 10
550.1231146264
 20
112.7620193989
 10
549.8405424674
 20
113.2255287345
 10
549.4888180742
 20
113.606732474
 10
549.1060562423
 20
113.8643212771
 10
548.7337351554
 20
113.9703814001
 10
548.4122015804
 20
113.9134195831
 10
548.1762986693
 20
113.6996085227
 10
548.0515901629
 20
113.3521179649
 10
548.0515901629
 20
112.9086039037
 10
548.1762986693
 20
112.4171279693
 10
548.4122015804
 20
111.9309492052
 10
548.7337351554
 20
111.5027526244
 10
549.1060562423
 20
111.1789399706
 10
549.4888180742
 20
110.9946013693
 10
549.8405424674
 20
110.9697127683
 10
550.1231146264
 20
111.1069712335
 10
550.3059134732
 20
111.3915026807
 10
550.3691299163
 20
111.7924737124
  0
LWPOLYLINE
  5
377
330
1F
100
AcDbEntity
  8
0
  6
Continuous
 62
     7
370
    25
100
AcDbPolyline
 90
       20
 70
   128
 43
0.0
 10
553.5511104317
 20
109.9555554608
 10
553.4878939886
 20
110.4295146441
 10
553.3050951418
 20
110.9251011473
 10
553.0225229828
 20
111.3886104829
 10
552.6707985896
 20
111.7698142224
 10
552.2880367577
 20
112.0274030255
 10
551.9157156708
 20
112.1334631485
 10
551.5941820958
 20
112.0765013315
 10
551.3582791847
 20
111.8626902711
 10
551.2335706782
 20
111.5151997133
 10
551.2335706782
 20
111.0716856521
 10
551.3582791847
 20
110.5802097177
 10
551.5941820958
 20
110.0940309536
 10
551.9157156708
 20
109.6658343728
 10
552.2880367577
 20
109.342021719
 10
552.6707985896
 20
109.1576831177
 10
553.0225229828
 20
109.1327945167
 10
553.3050951418
 20
109.2700529819
 10
553.4878939886
 20
109.5545844291
 10
553.5511104317
 20
109.9555554608
  0
LWPOLYLINE
  5
378
330
1F
100
AcDbEntity
  8
0
  6
Continuous
 62
     7
370
    25
100
AcDbPolyline
 90
       20
 70
   128
 43
0.0
 10
556.733090947
 20
108.1186372092
 10
556.6698745039
 20
108.5925963925
 10
556.4870756571
 20
109.0881828957
 10
556.2045034981
 20
109.5516922313
 10
555.8527791049
 20
109.9328959708
 10
555.470017273
 20
110.1904847739
 10
555.0976961861
 20
110.2965448969
 10
554.7761626111
 20
110.2395830798
 10
554.5402597
 20
110.0257720195
 10
554.4155511936
 20
109.6782814617
 10
554.4155511936
 20
109.2347674005
 10
554.5402597
 20
108.7432914661
 10
554.7761626111
 20
108.257112702
 10
555.0976961861
 20
107.8289161212
 10
555.470017273
 20
107.5051034674
 10
555.8527791049
 20
107.3207648661
 10
556.2045034981
 20
107.2958762651
 10
556.4870756571
 20
107.4331347303
 10
556.6698745039
 20
107.7176661775
 10
556.733090947
 20
108.1186372092
  0
LWPOLYLINE
  5
379
330
1F
100
AcDbEntity
  8
0
  6
Continuous
 62
     7
370
    25
100
AcDbPolyline
 90
       20
 70
   128
 43
0.0
 10
559.9150714623
 20
106.2817189576
 10
559.8518550192
 20
106.7556781409
 10
559.6690561725
 20
107.2512646441
 10
559.3864840135
 20
107.7147739797
 10
559.0347596202
 20
108.0959777192
 10
558.6519977883
 20
108.3535665223
 10
558.2796767015
 20
108.4596266453
 10
557.9581431265
 20
108.4026648282
 10
557.7222402153
 20
108.1888537679
 10
557.5975317089
 20
107.8413632101
 10
557.5975317089
 20
107.3978491489
 10
557.7222402153
 20
106.9063732145
 10
557.9581431265
 20
106.4201944504
 10
558.2796767015
 20
105.9919978696
 10
558.6519977883
 20
105.6681852158
 10
559.0347596202
 20
105.4838466145
 10
559.3864840135
 20
105.4589580135
 10
559.6690561725
 20
105.5962164787
 10
559.8518550192
 20
105.8807479259
 10
559.9150714623
 20
106.2817189576
  0
LWPOLYLINE
  5
37A
330
1F
100
AcDbEntity
  8
0
  6
Continuous
 62
     7
370
    25
100
AcDbPolyline
 90
       20
 70
   128
 43
0.0
 10
563.0970519777
 20
104.444800706
 10
563.0338355346
 20
104.9187598893
 10
562.8510366878
 20
105.4143463925
 10
562.5684645288
 20
105.8778557281
 10
562.2167401356
 20
106.2590594676
 10
561.8339783037
 20
106.5166482707
 10
561.4616572168
 20
106.6227083937
 10
561.1401236418
 20
106.5657465766
 10
560.9042207307
 20
106.3519355163
 10
560.7795122243
 20
106.0044449585
 10
560.7795122243
 20
105.5609308973
 10
560.9042207307
 20
105.0694549629
 10
561.1401236418
 20
104.5832761988
 10
561.4616572168
 20
104.155079618
 10
561.8339783037
 20
103.8312669642
 10
562.2167401356
 20
103.6469283629
 10
562.5684645288
 20
103.6220397619
 10
562.8510366878
 20
103.7592982271
 10
563.0338355346
 20
104.0438296743
 10
563.0970519777
 20
104.444800706
  0
LWPOLYLINE
  5
37B
330
1F
100
AcDbEntity
  8
0
  6
Continuous
 62
     7
370
    25
100
AcDbPolyline
 90
       20
 70
   128
 43
0.0
 10
566.279032493
 20
102.6078824544
 10
566.2158160499
 20
103.0818416377
 10
566.0330172031
 20
103.5774281409
 10
565.7504450441
 20
104.0409374765
 10
565.3987206509
 20
104.422141216
 10
565.015958819
 20
104.6797300191
 10
564.6436377321
 20
104.7857901421
 10
564.3221041571
 20
104.728828325
 10
564.086201246
 20
104.5150172647
 10
563.9614927396
 20
104.1675267069
 10
563.9614927396
 20
103.7240126457
 10
564.086201246
 20
103.2325367113
 10
564.3221041571
 20
102.7463579472
 10
564.6436377321
 20
102.3181613664
 10
565.015958819
 20
101.9943487126
 10
565.3987206509
 20
101.8100101113
 10
565.7504450441
 20
101.7851215103
 10
566.0330172031
 20
101.9223799755
 10
566.2158160499
 20
102.2069114227
 10
566.279032493
 20
102.6078824544
  0
LWPOLYLINE
  5
37C
330
1F
100
AcDbEntity
  8
0
  6
Continuous
 62
     7
370
    25
100
AcDbPolyline
 90
       20
 70
   128
 43
0.0
 10
569.4610130084
 20
100.7709642028
 10
569.3977965653
 20
101.2449233861
 10
569.2149977185
 20
101.7405098893
 10
568.9324255595
 20
102.2040192249
 10
568.5807011663
 20
102.5852229644
 10
568.1979393344
 20
102.8428117675
 10
567.8256182475
 20
102.9488718905
 10
567.5040846725
 20
102.8919100734
 10
567.2681817614
 20
102.6780990131
 10
567.1434732549
 20
102.3306084553
 10
567.1434732549
 20
101.8870943941
 10
567.2681817614
 20
101.3956184597
 10
567.5040846725
 20
100.9094396956
 10
567.8256182475
 20
100.4812431148
 10
568.1979393344
 20
100.157430461
 10
568.5807011663
 20
99.9730918597
 10
568.9324255595
 20
99.9482032587
 10
569.2149977185
 20
100.0854617239
 10
569.3977965653
 20
100.3699931711
 10
569.4610130084
 20
100.7709642028
  0
LWPOLYLINE
  5
37D
330
1F
100
AcDbEntity
  8
0
  6
Continuous
 62
     7
370
    25
100
AcDbPolyline
 90
       20
 70
   128
 43
0.0
 10
572.6429935237
 20
98.9340459512
 10
572.5797770806
 20
99.4080051345
 10
572.3969782338
 20
99.9035916377
 10
572.1144060748
 20
100.3671009733
 10
571.7626816816
 20
100.7483047128
 10
571.3799198497
 20
101.0058935158
 10
571.0075987628
 20
101.1119536389
 10
570.6860651878
 20
101.0549918218
 10
570.4501622767
 20
100.8411807615
 10
570.3254537703
 20
100.4936902037
 10
570.3254537703
 20
100.0501761425
 10
570.4501622767
 20
99.5587002081
 10
570.6860651878
 20
99.072521444
 10
571.0075987628
 20
98.6443248632
 10
571.3799198497
 20
98.3205122094
 10
571.7626816816
 20
98.1361736081
 10
572.1144060748
 20
98.111285007
 10
572.3969782338
 20
98.2485434723
 10
572.5797770806
 20
98.5330749195
 10
572.6429935237
 20
98.9340459512
  0
LWPOLYLINE
  5
37E
330
1F
100
AcDbEntity
  8
0
  6
Continuous
 62
     7
370
    25
100
AcDbPolyline
 90
       20
 70
   128
 43
0.0
 10
575.824974039
 20
97.0971276996
 10
575.7617575959
 20
97.5710868829
 10
575.5789587492
 20
98.0666733861
 10
575.2963865902
 20
98.5301827217
 10
574.9446621969
 20
98.9113864612
 10
574.561900365
 20
99.1689752642
 10
574.1895792781
 20
99.2750353873
 10
573.8680457032
 20
99.2180735702
 10
573.632142792
 20
99.0042625099
 10
573.5074342856
 20
98.6567719521
 10
573.5074342856
 20
98.2132578909
 10
573.632142792
 20
97.7217819565
 10
573.8680457032
 20
97.2356031924
 10
574.1895792781
 20
96.8074066116
 10
574.561900365
 20
96.4835939578
 10
574.9446621969
 20
96.2992553565
 10
575.2963865902
 20
96.2743667554
 10
575.5789587492
 20
96.4116252207
 10
575.7617575959
 20
96.6961566679
 10
575.824974039
 20
97.0971276996
  0
LWPOLYLINE
  5
37F
330
1F
100
AcDbEntity
  8
0
  6
Continuous
 62
     7
370
    25
100
AcDbPolyline
 90
       20
 70
   128
 43
0.0
 10
579.0069545544
 20
95.260209448
 10
578.9437381113
 20
95.7341686313
 10
578.7609392645
 20
96.2297551345
 10
578.4783671055
 20
96.6932644701
 10
578.1266427123
 20
97.0744682096
 10
577.7438808804
 20
97.3320570126
 10
577.3715597935
 20
97.4381171357
 10
577.0500262185
 20
97.3811553186
 10
576.8141233074
 20
97.1673442583
 10
576.689414801
 20
96.8198537005
 10
576.689414801
 20
96.3763396393
 10
576.8141233074
 20
95.8848637049
 10
577.0500262185
 20
95.3986849408
 10
577.3715597935
 20
94.97048836
 10
577.7438808804
 20
94.6466757062
 10
578.1266427123
 20
94.4623371049
 10
578.4783671055
 20
94.4374485038
 10
578.7609392645
 20
94.5747069691
 10
578.9437381113
 20
94.8592384163
 10
579.0069545544
 20
95.260209448
  0
LWPOLYLINE
  5
380
330
1F
100
AcDbEntity
  8
0
  6
Continuous
 62
     7
370
    25
100
AcDbPolyline
 90
       20
 70
   128
 43
0.0
 10
582.1889350697
 20
93.4232911964
 10
582.1257186266
 20
93.8972503797
 10
581.9429197798
 20
94.3928368829
 10
581.6603476208
 20
94.8563462185
 10
581.3086232276
 20
95.237549958
 10
580.9258613957
 20
95.495138761
 10
580.5535403088
 20
95.6011988841
 10
580.2320067338
 20
95.544237067
 10
579.9961038227
 20
95.3304260067
 10
579.8713953163
 20
94.9829354489
 10
579.8713953163
 20
94.5394213877
 10
579.9961038227
 20
94.0479454533
 10
580.2320067338
 20
93.5617666892
 10
580.5535403088
 20
93.1335701084
 10
580.9258613957
 20
92.8097574546
 10
581.3086232276
 20
92.6254188533
 10
581.6603476208
 20
92.6005302522
 10
581.9429197798
 20
92.7377887175
 10
582.1257186266
 20
93.0223201647
 10
582.1889350697
 20
93.4232911964
  0
LWPOLYLINE
  5
381
330
1F
100
AcDbEntity
  8
0
  6
Continuous
 62
     7
370
    25
100
AcDbPolyline
 90
       20
 70
   128
 43
0.0
 10
585.3709155851
 20
91.5863729448
 10
585.307699142
 20
92.0603321281
 10
585.1249002952
 20
92.5559186313
 10
584.8423281362
 20
93.0194279669
 10
584.490603743
 20
93.4006317064
 10
584.1078419111
 20
93.6582205094
 10
583.7355208242
 20
93.7642806325
 10
583.4139872492
 20
93.7073188154
 10
583.1780843381
 20
93.4935077551
 10
583.0533758316
 20
93.1460171973
 10
583.0533758316
 20
92.7025031361
 10
583.1780843381
 20
92.2110272017
 10
583.4139872492
 20
91.7248484376
 10
583.7355208242
 20
91.2966518568
 10
584.1078419111
 20
90.972839203
 10
584.490603743
 20
90.7885006017
 10
584.8423281362
 20
90.7636120006
 10
585.1249002952
 20
90.9008704659
 10
585.307699142
 20
91.1854019131
 10
585.3709155851
 20
91.5863729448
  0
LWPOLYLINE
  5
382
330
1F
100
AcDbEntity
  8
0
  6
Continuous
 62
     7
370
    25
100
AcDbPolyline
 90
       20
 70
   128
 43
0.0
 10
588.5528961004
 20
89.7494546932
 10
588.4896796573
 20
90.2234138765
 10
588.3068808105
 20
90.7190003797
 10
588.0243086515
 20
91.1825097153
 10
587.6725842583
 20
91.5637134548
 10
587.2898224264
 20
91.8213022578
 10
586.9175013395
 20
91.9273623809
 10
586.5959677645
 20
91.8704005638
 10
586.3600648534
 20
91.6565895035
 10
586.235356347
 20
91.3090989457
 10
586.235356347
 20
90.8655848845
 10
586.3600648534
 20
90.3741089501
 10
586.5959677645
 20
89.887930186
 10
586.9175013395
 20
89.4597336052
 10
587.2898224264
 20
89.1359209514
 10
587.6725842583
 20
88.9515823501
 10
588.0243086515
 20
88.926693749
 10
588.3068808105
 20
89.0639522143
 10
588.4896796573
 20
89.3484836615
 10
588.5528961004
 20
89.7494546932
  0
LWPOLYLINE
  5
383
330
1F
100
AcDbEntity
  8
0
  6
Continuous
 62
     7
370
    25
100
AcDbPolyline
 90
       20
 70
   128
 43
0.0
 10
591.7348766157
 20
87.9125364416
 10
591.6716601726
 20
88.3864956249
 10
591.4888613259
 20
88.8820821281
 10
591.2062891669
 20
89.3455914637
 10
590.8545647736
 20
89.7267952032
 10
590.4718029417
 20
89.9843840062
 10
590.0994818548
 20
90.0904441293
 10
589.7779482799
 20
90.0334823122
 10
589.5420453687
 20
89.8196712518
 10
589.4173368623
 20
89.4721806941
 10
589.4173368623
 20
89.0286666329
 10
589.5420453687
 20
88.5371906985
 10
589.7779482799
 20
88.0510119344
 10
590.0994818548
 20
87.6228153536
 10
590.4718029417
 20
87.2990026998
 10
590.8545647736
 20
87.1146640985
 10
591.2062891669
 20
87.0897754974
 10
591.4888613259
 20
87.2270339627
 10
591.6716601726
 20
87.5115654099
 10
591.7348766157
 20
87.9125364416
  0
LWPOLYLINE
  5
384
330
1F
100
AcDbEntity
  8
0
  6
Continuous
 62
     7
370
    25
100
AcDbPolyline
 90
       20
 70
   128
 43
0.0
 10
594.9168571311
 20
86.07561819
 10
594.853640688
 20
86.5495773733
 10
594.6708418412
 20
87.0451638765
 10
594.3882696822
 20
87.5086732121
 10
594.036545289
 20
87.8898769516
 10
593.6537834571
 20
88.1474657546
 10
593.2814623702
 20
88.2535258777
 10
592.9599287952
 20
88.1965640606
 10
592.7240258841
 20
87.9827530002
 10
592.5993173777
 20
87.6352624425
 10
592.5993173777
 20
87.1917483813
 10
592.7240258841
 20
86.7002724469
 10
592.9599287952
 20
86.2140936828
 10
593.2814623702
 20
85.785897102
 10
593.6537834571
 20
85.4620844482
 10
594.036545289
 20
85.2777458469
 10
594.3882696822
 20
85.2528572458
 10
594.6708418412
 20
85.3901157111
 10
594.853640688
 20
85.6746471583
 10
594.9168571311
 20
86.07561819
  0
LWPOLYLINE
  5
385
330
1F
100
AcDbEntity
  8
0
  6
Continuous
 62
     7
370
    25
100
AcDbPolyline
 90
       20
 70
   128
 43
0.0
 10
598.0988376464
 20
84.2386999384
 10
598.0356212033
 20
84.7126591217
 10
597.8528223565
 20
85.2082456249
 10
597.5702501975
 20
85.6717549605
 10
597.2185258043
 20
86.0529587
 10
596.8357639724
 20
86.310547503
 10
596.4634428855
 20
86.4166076261
 10
596.1419093105
 20
86.359645809
 10
595.9060063994
 20
86.1458347486
 10
595.781297893
 20
85.7983441909
 10
595.781297893
 20
85.3548301297
 10
595.9060063994
 20
84.8633541953
 10
596.1419093105
 20
84.3771754312
 10
596.4634428855
 20
83.9489788504
 10
596.8357639724
 20
83.6251661966
 10
597.2185258043
 20
83.4408275953
 10
597.5702501975
 20
83.4159389942
 10
597.8528223565
 20
83.5531974595
 10
598.0356212033
 20
83.8377289067
 10
598.0988376464
 20
84.2386999384
  0
LWPOLYLINE
  5
386
330
1F
100
AcDbEntity
  8
0
  6
Continuous
 62
     7
370
    25
100
AcDbPolyline
 90
       20
 70
   128
 43
0.0
 10
601.2808181618
 20
82.4017816868
 10
601.2176017187
 20
82.8757408701
 10
601.0348028719
 20
83.3713273733
 10
600.7522307129
 20
83.8348367089
 10
600.4005063196
 20
84.2160404483
 10
600.0177444878
 20
84.4736292514
 10
599.6454234009
 20
84.5796893745
 10
599.3238898259
 20
84.5227275574
 10
599.0879869148
 20
84.308916497
 10
598.9632784083
 20
83.9614259393
 10
598.9632784083
 20
83.5179118781
 10
599.0879869148
 20
83.0264359437
 10
599.3238898259
 20
82.5402571796
 10
599.6454234009
 20
82.1120605988
 10
600.0177444878
 20
81.788247945
 10
600.4005063196
 20
81.6039093437
 10
600.7522307129
 20
81.5790207426
 10
601.0348028719
 20
81.7162792079
 10
601.2176017187
 20
82.0008106551
 10
601.2808181618
 20
82.4017816868
  0
LWPOLYLINE
  5
387
330
1F
100
AcDbEntity
  8
0
  6
Continuous
 62
     7
370
    25
100
AcDbPolyline
 90
       20
 70
   128
 43
0.0
 10
604.4627986771
 20
80.5648634352
 10
604.399582234
 20
81.0388226185
 10
604.2167833872
 20
81.5344091217
 10
603.9342112282
 20
81.9979184573
 10
603.582486835
 20
82.3791221967
 10
603.1997250031
 20
82.6367109998
 10
602.8274039162
 20
82.7427711229
 10
602.5058703412
 20
82.6858093058
 10
602.2699674301
 20
82.4719982454
 10
602.1452589237
 20
82.1245076877
 10
602.1452589237
 20
81.6809936265
 10
602.2699674301
 20
81.1895176921
 10
602.5058703412
 20
80.703338928
 10
602.8274039162
 20
80.2751423472
 10
603.1997250031
 20
79.9513296934
 10
603.582486835
 20
79.7669910921
 10
603.9342112282
 20
79.742102491
 10
604.2167833872
 20
79.8793609563
 10
604.399582234
 20
80.1638924034
 10
604.4627986771
 20
80.5648634352
  0
LWPOLYLINE
  5
388
330
1F
100
AcDbEntity
  8
0
  6
Continuous
 62
     7
370
    25
100
AcDbPolyline
 90
       20
 70
   128
 43
0.0
 10
607.6447791924
 20
78.7279451836
 10
607.5815627493
 20
79.2019043669
 10
607.3987639026
 20
79.6974908701
 10
607.1161917436
 20
80.1610002057
 10
606.7644673503
 20
80.5422039451
 10
606.3817055184
 20
80.7997927482
 10
606.0093844315
 20
80.9058528713
 10
605.6878508566
 20
80.8488910542
 10
605.4519479454
 20
80.6350799938
 10
605.327239439
 20
80.2875894361
 10
605.327239439
 20
79.8440753749
 10
605.4519479454
 20
79.3525994405
 10
605.6878508566
 20
78.8664206764
 10
606.0093844315
 20
78.4382240956
 10
606.3817055184
 20
78.1144114418
 10
606.7644673503
 20
77.9300728405
 10
607.1161917436
 20
77.9051842394
 10
607.3987639026
 20
78.0424427047
 10
607.5815627493
 20
78.3269741518
 10
607.6447791924
 20
78.7279451836
  0
LWPOLYLINE
  5
389
330
1F
100
AcDbEntity
  8
0
  6
Continuous
 62
     7
370
    25
100
AcDbPolyline
 90
       20
 70
   128
 43
0.0
 10
610.8267597078
 20
76.891026932
 10
610.7635432647
 20
77.3649861153
 10
610.5807444179
 20
77.8605726185
 10
610.2981722589
 20
78.3240819541
 10
609.9464478657
 20
78.7052856935
 10
609.5636860338
 20
78.9628744966
 10
609.1913649469
 20
79.0689346197
 10
608.8698313719
 20
79.0119728026
 10
608.6339284608
 20
78.7981617422
 10
608.5092199544
 20
78.4506711845
 10
608.5092199544
 20
78.0071571233
 10
608.6339284608
 20
77.5156811888
 10
608.8698313719
 20
77.0295024248
 10
609.1913649469
 20
76.601305844
 10
609.5636860338
 20
76.2774931902
 10
609.9464478657
 20
76.0931545889
 10
610.2981722589
 20
76.0682659878
 10
610.5807444179
 20
76.2055244531
 10
610.7635432647
 20
76.4900559002
 10
610.8267597078
 20
76.891026932
  0
LWPOLYLINE
  5
38A
330
1F
100
AcDbEntity
  8
0
  6
Continuous
 62
     7
370
    25
100
AcDbPolyline
 90
       20
 70
   128
 43
0.0
 10
614.0087402231
 20
75.0541086804
 10
613.94552378
 20
75.5280678637
 10
613.7627249332
 20
76.0236543669
 10
613.4801527742
 20
76.4871637025
 10
613.128428381
 20
76.8683674419
 10
612.7456665491
 20
77.125956245
 10
612.3733454622
 20
77.2320163681
 10
612.0518118872
 20
77.175054551
 10
611.8159089761
 20
76.9612434906
 10
611.6912004697
 20
76.6137529329
 10
611.6912004697
 20
76.1702388717
 10
611.8159089761
 20
75.6787629372
 10
612.0518118872
 20
75.1925841732
 10
612.3733454622
 20
74.7643875924
 10
612.7456665491
 20
74.4405749386
 10
613.128428381
 20
74.2562363373
 10
613.4801527742
 20
74.2313477362
 10
613.7627249332
 20
74.3686062015
 10
613.94552378
 20
74.6531376486
 10
614.0087402231
 20
75.0541086804
  0
LWPOLYLINE
  5
38B
330
1F
100
AcDbEntity
  8
0
  6
Continuous
 62
     7
370
    25
100
AcDbPolyline
 90
       20
 70
   128
 43
0.0
 10
547.187149401
 20
109.9549583105
 10
547.1239329579
 20
110.4289174939
 10
546.9411341111
 20
110.924503997
 10
546.6585619521
 20
111.3880133327
 10
546.3068375589
 20
111.7692170721
 10
545.924075727
 20
112.0268058752
 10
545.5517546401
 20
112.1328659982
 10
545.2302210651
 20
112.0759041812
 10
544.994318154
 20
111.8620931208
 10
544.8696096476
 20
111.5146025631
 10
544.8696096476
 20
111.0710885018
 10
544.994318154
 20
110.5796125674
 10
545.2302210651
 20
110.0934338033
 10
545.5517546401
 20
109.6652372226
 10
545.924075727
 20
109.3414245688
 10
546.3068375589
 20
109.1570859674
 10
546.6585619521
 20
109.1321973664
 10
546.9411341111
 20
109.2694558316
 10
547.1239329579
 20
109.5539872788
 10
547.187149401
 20
109.9549583105
  0
LWPOLYLINE
  5
38C
330
1F
100
AcDbEntity
  8
0
  6
Continuous
 62
     7
370
    25
100
AcDbPolyline
 90
       20
 70
   128
 43
0.0
 10
550.3691299163
 20
108.1180400589
 10
550.3059134732
 20
108.5919992423
 10
550.1231146264
 20
109.0875857454
 10
549.8405424674
 20
109.5510950811
 10
549.4888180742
 20
109.9322988205
 10
549.1060562423
 20
110.1898876236
 10
548.7337351554
 20
110.2959477466
 10
548.4122015804
 20
110.2389859296
 10
548.1762986693
 20
110.0251748692
 10
548.0515901629
 20
109.6776843115
 10
548.0515901629
 20
109.2341702502
 10
548.1762986693
 20
108.7426943158
 10
548.4122015804
 20
108.2565155517
 10
548.7337351554
 20
107.828318971
 10
549.1060562423
 20
107.5045063172
 10
549.4888180742
 20
107.3201677158
 10
549.8405424674
 20
107.2952791148
 10
550.1231146264
 20
107.43253758
 10
550.3059134732
 20
107.7170690272
 10
550.3691299163
 20
108.1180400589
  0
LWPOLYLINE
  5
38D
330
1F
100
AcDbEntity
  8
0
  6
Continuous
 62
     7
370
    25
100
AcDbPolyline
 90
       20
 70
   128
 43
0.0
 10
553.5511104317
 20
106.2811218073
 10
553.4878939886
 20
106.7550809907
 10
553.3050951418
 20
107.2506674938
 10
553.0225229828
 20
107.7141768295
 10
552.6707985896
 20
108.0953805689
 10
552.2880367577
 20
108.352969372
 10
551.9157156708
 20
108.459029495
 10
551.5941820958
 20
108.402067678
 10
551.3582791847
 20
108.1882566176
 10
551.2335706782
 20
107.8407660599
 10
551.2335706782
 20
107.3972519986
 10
551.3582791847
 20
106.9057760642
 10
551.5941820958
 20
106.4195973001
 10
551.9157156708
 20
105.9914007194
 10
552.2880367577
 20
105.6675880656
 10
552.6707985896
 20
105.4832494642
 10
553.0225229828
 20
105.4583608632
 10
553.3050951418
 20
105.5956193284
 10
553.4878939886
 20
105.8801507756
 10
553.5511104317
 20
106.2811218073
  0
LWPOLYLINE
  5
38E
330
1F
100
AcDbEntity
  8
0
  6
Continuous
 62
     7
370
    25
100
AcDbPolyline
 90
       20
 70
   128
 43
0.0
 10
556.733090947
 20
104.4442035557
 10
556.6698745039
 20
104.9181627391
 10
556.4870756571
 20
105.4137492422
 10
556.2045034981
 20
105.8772585779
 10
555.8527791049
 20
106.2584623173
 10
555.470017273
 20
106.5160511204
 10
555.0976961861
 20
106.6221112434
 10
554.7761626111
 20
106.5651494264
 10
554.5402597
 20
106.351338366
 10
554.4155511936
 20
106.0038478083
 10
554.4155511936
 20
105.560333747
 10
554.5402597
 20
105.0688578126
 10
554.7761626111
 20
104.5826790485
 10
555.0976961861
 20
104.1544824678
 10
555.470017273
 20
103.830669814
 10
555.8527791049
 20
103.6463312126
 10
556.2045034981
 20
103.6214426116
 10
556.4870756571
 20
103.7587010768
 10
556.6698745039
 20
104.043232524
 10
556.733090947
 20
104.4442035557
  0
LWPOLYLINE
  5
38F
330
1F
100
AcDbEntity
  8
0
  6
Continuous
 62
     7
370
    25
100
AcDbPolyline
 90
       20
 70
   128
 43
0.0
 10
559.9150714623
 20
102.6072853041
 10
559.8518550192
 20
103.0812444874
 10
559.6690561725
 20
103.5768309906
 10
559.3864840135
 20
104.0403403263
 10
559.0347596202
 20
104.4215440657
 10
558.6519977883
 20
104.6791328688
 10
558.2796767015
 20
104.7851929918
 10
557.9581431265
 20
104.7282311748
 10
557.7222402153
 20
104.5144201144
 10
557.5975317089
 20
104.1669295567
 10
557.5975317089
 20
103.7234154954
 10
557.7222402153
 20
103.231939561
 10
557.9581431265
 20
102.7457607969
 10
558.2796767015
 20
102.3175642162
 10
558.6519977883
 20
101.9937515624
 10
559.0347596202
 20
101.809412961
 10
559.3864840135
 20
101.78452436
 10
559.6690561725
 20
101.9217828252
 10
559.8518550192
 20
102.2063142724
 10
559.9150714623
 20
102.6072853041
  0
LWPOLYLINE
  5
390
330
1F
100
AcDbEntity
  8
0
  6
Continuous
 62
     7
370
    25
100
AcDbPolyline
 90
       20
 70
   128
 43
0.0
 10
563.0970519777
 20
100.7703670525
 10
563.0338355346
 20
101.2443262358
 10
562.8510366878
 20
101.739912739
 10
562.5684645288
 20
102.2034220747
 10
562.2167401356
 20
102.5846258141
 10
561.8339783037
 20
102.8422146172
 10
561.4616572168
 20
102.9482747402
 10
561.1401236418
 20
102.8913129232
 10
560.9042207307
 20
102.6775018628
 10
560.7795122243
 20
102.3300113051
 10
560.7795122243
 20
101.8864972438
 10
560.9042207307
 20
101.3950213094
 10
561.1401236418
 20
100.9088425453
 10
561.4616572168
 20
100.4806459646
 10
561.8339783037
 20
100.1568333108
 10
562.2167401356
 20
99.9724947094
 10
562.5684645288
 20
99.9476061084
 10
562.8510366878
 20
100.0848645736
 10
563.0338355346
 20
100.3693960208
 10
563.0970519777
 20
100.7703670525
  0
LWPOLYLINE
  5
391
330
1F
100
AcDbEntity
  8
0
  6
Continuous
 62
     7
370
    25
100
AcDbPolyline
 90
       20
 70
   128
 43
0.0
 10
566.279032493
 20
98.9334488009
 10
566.2158160499
 20
99.4074079842
 10
566.0330172031
 20
99.9029944874
 10
565.7504450441
 20
100.3665038231
 10
565.3987206509
 20
100.7477075625
 10
565.015958819
 20
101.0052963656
 10
564.6436377321
 20
101.1113564886
 10
564.3221041571
 20
101.0543946716
 10
564.086201246
 20
100.8405836112
 10
563.9614927396
 20
100.4930930535
 10
563.9614927396
 20
100.0495789922
 10
564.086201246
 20
99.5581030578
 10
564.3221041571
 20
99.0719242937
 10
564.6436377321
 20
98.643727713
 10
565.015958819
 20
98.3199150592
 10
565.3987206509
 20
98.1355764578
 10
565.7504450441
 20
98.1106878568
 10
566.0330172031
 20
98.247946322
 10
566.2158160499
 20
98.5324777692
 10
566.279032493
 20
98.9334488009
  0
LWPOLYLINE
  5
392
330
1F
100
AcDbEntity
  8
0
  6
Continuous
 62
     7
370
    25
100
AcDbPolyline
 90
       20
 70
   128
 43
0.0
 10
569.4610130084
 20
97.0965305493
 10
569.3977965653
 20
97.5704897326
 10
569.2149977185
 20
98.0660762358
 10
568.9324255595
 20
98.5295855714
 10
568.5807011663
 20
98.9107893109
 10
568.1979393344
 20
99.168378114
 10
567.8256182475
 20
99.274438237
 10
567.5040846725
 20
99.21747642
 10
567.2681817614
 20
99.0036653596
 10
567.1434732549
 20
98.6561748019
 10
567.1434732549
 20
98.2126607406
 10
567.2681817614
 20
97.7211848062
 10
567.5040846725
 20
97.2350060421
 10
567.8256182475
 20
96.8068094614
 10
568.1979393344
 20
96.4829968076
 10
568.5807011663
 20
96.2986582062
 10
568.9324255595
 20
96.2737696052
 10
569.2149977185
 20
96.4110280704
 10
569.3977965653
 20
96.6955595176
 10
569.4610130084
 20
97.0965305493
  0
LWPOLYLINE
  5
393
330
1F
100
AcDbEntity
  8
0
  6
Continuous
 62
     7
370
    25
100
AcDbPolyline
 90
       20
 70
   128
 43
0.0
 10
572.6429935237
 20
95.2596122977
 10
572.5797770806
 20
95.733571481
 10
572.3969782338
 20
96.2291579842
 10
572.1144060748
 20
96.6926673198
 10
571.7626816816
 20
97.0738710593
 10
571.3799198497
 20
97.3314598624
 10
571.0075987628
 20
97.4375199854
 10
570.6860651878
 20
97.3805581684
 10
570.4501622767
 20
97.166747108
 10
570.3254537703
 20
96.8192565502
 10
570.3254537703
 20
96.375742489
 10
570.4501622767
 20
95.8842665546
 10
570.6860651878
 20
95.3980877905
 10
571.0075987628
 20
94.9698912098
 10
571.3799198497
 20
94.646078556
 10
571.7626816816
 20
94.4617399546
 10
572.1144060748
 20
94.4368513536
 10
572.3969782338
 20
94.5741098188
 10
572.5797770806
 20
94.858641266
 10
572.6429935237
 20
95.2596122977
  0
LWPOLYLINE
  5
394
330
1F
100
AcDbEntity
  8
0
  6
Continuous
 62
     7
370
    25
100
AcDbPolyline
 90
       20
 70
   128
 43
0.0
 10
575.824974039
 20
93.4226940461
 10
575.7617575959
 20
93.8966532294
 10
575.5789587492
 20
94.3922397326
 10
575.2963865902
 20
94.8557490682
 10
574.9446621969
 20
95.2369528077
 10
574.561900365
 20
95.4945416108
 10
574.1895792781
 20
95.6006017338
 10
573.8680457032
 20
95.5436399168
 10
573.632142792
 20
95.3298288564
 10
573.5074342856
 20
94.9823382986
 10
573.5074342856
 20
94.5388242374
 10
573.632142792
 20
94.047348303
 10
573.8680457032
 20
93.5611695389
 10
574.1895792781
 20
93.1329729582
 10
574.561900365
 20
92.8091603044
 10
574.9446621969
 20
92.624821703
 10
575.2963865902
 20
92.599933102
 10
575.5789587492
 20
92.7371915672
 10
575.7617575959
 20
93.0217230144
 10
575.824974039
 20
93.4226940461
  0
LWPOLYLINE
  5
395
330
1F
100
AcDbEntity
  8
0
  6
Continuous
 62
     7
370
    25
100
AcDbPolyline
 90
       20
 70
   128
 43
0.0
 10
579.0069545544
 20
91.5857757945
 10
578.9437381113
 20
92.0597349778
 10
578.7609392645
 20
92.555321481
 10
578.4783671055
 20
93.0188308166
 10
578.1266427123
 20
93.4000345561
 10
577.7438808804
 20
93.6576233592
 10
577.3715597935
 20
93.7636834822
 10
577.0500262185
 20
93.7067216652
 10
576.8141233074
 20
93.4929106048
 10
576.689414801
 20
93.145420047
 10
576.689414801
 20
92.7019059858
 10
576.8141233074
 20
92.2104300514
 10
577.0500262185
 20
91.7242512873
 10
577.3715597935
 20
91.2960547066
 10
577.7438808804
 20
90.9722420528
 10
578.1266427123
 20
90.7879034514
 10
578.4783671055
 20
90.7630148504
 10
578.7609392645
 20
90.9002733156
 10
578.9437381113
 20
91.1848047628
 10
579.0069545544
 20
91.5857757945
  0
LWPOLYLINE
  5
396
330
1F
100
AcDbEntity
  8
0
  6
Continuous
 62
     7
370
    25
100
AcDbPolyline
 90
       20
 70
   128
 43
0.0
 10
582.1889350697
 20
89.7488575429
 10
582.1257186266
 20
90.2228167262
 10
581.9429197798
 20
90.7184032294
 10
581.6603476208
 20
91.181912565
 10
581.3086232276
 20
91.5631163045
 10
580.9258613957
 20
91.8207051076
 10
580.5535403088
 20
91.9267652306
 10
580.2320067338
 20
91.8698034136
 10
579.9961038227
 20
91.6559923532
 10
579.8713953163
 20
91.3085017954
 10
579.8713953163
 20
90.8649877342
 10
579.9961038227
 20
90.3735117998
 10
580.2320067338
 20
89.8873330357
 10
580.5535403088
 20
89.4591364549
 10
580.9258613957
 20
89.1353238012
 10
581.3086232276
 20
88.9509851998
 10
581.6603476208
 20
88.9260965988
 10
581.9429197798
 20
89.063355064
 10
582.1257186266
 20
89.3478865112
 10
582.1889350697
 20
89.7488575429
  0
LWPOLYLINE
  5
397
330
1F
100
AcDbEntity
  8
0
  6
Continuous
 62
     7
370
    25
100
AcDbPolyline
 90
       20
 70
   128
 43
0.0
 10
585.3709155851
 20
87.9119392913
 10
585.307699142
 20
88.3858984746
 10
585.1249002952
 20
88.8814849778
 10
584.8423281362
 20
89.3449943134
 10
584.490603743
 20
89.7261980529
 10
584.1078419111
 20
89.983786856
 10
583.7355208242
 20
90.089846979
 10
583.4139872492
 20
90.032885162
 10
583.1780843381
 20
89.8190741016
 10
583.0533758316
 20
89.4715835438
 10
583.0533758316
 20
89.0280694826
 10
583.1780843381
 20
88.5365935482
 10
583.4139872492
 20
88.0504147841
 10
583.7355208242
 20
87.6222182033
 10
584.1078419111
 20
87.2984055496
 10
584.490603743
 20
87.1140669482
 10
584.8423281362
 20
87.0891783472
 10
585.1249002952
 20
87.2264368124
 10
585.307699142
 20
87.5109682596
 10
585.3709155851
 20
87.9119392913
  0
LWPOLYLINE
  5
398
330
1F
100
AcDbEntity
  8
0
  6
Continuous
 62
     7
370
    25
100
AcDbPolyline
 90
       20
 70
   128
 43
0.0
 10
588.5528961004
 20
86.0750210397
 10
588.4896796573
 20
86.548980223
 10
588.3068808105
 20
87.0445667262
 10
588.0243086515
 20
87.5080760618
 10
587.6725842583
 20
87.8892798013
 10
587.2898224264
 20
88.1468686044
 10
586.9175013395
 20
88.2529287274
 10
586.5959677645
 20
88.1959669104
 10
586.3600648534
 20
87.98215585
 10
586.235356347
 20
87.6346652922
 10
586.235356347
 20
87.191151231
 10
586.3600648534
 20
86.6996752966
 10
586.5959677645
 20
86.2134965325
 10
586.9175013395
 20
85.7852999517
 10
587.2898224264
 20
85.461487298
 10
587.6725842583
 20
85.2771486966
 10
588.0243086515
 20
85.2522600956
 10
588.3068808105
 20
85.3895185608
 10
588.4896796573
 20
85.674050008
 10
588.5528961004
 20
86.0750210397
  0
LWPOLYLINE
  5
399
330
1F
100
AcDbEntity
  8
0
  6
Continuous
 62
     7
370
    25
100
AcDbPolyline
 90
       20
 70
   128
 43
0.0
 10
591.7348766157
 20
84.2381027881
 10
591.6716601726
 20
84.7120619714
 10
591.4888613259
 20
85.2076484746
 10
591.2062891669
 20
85.6711578102
 10
590.8545647736
 20
86.0523615497
 10
590.4718029417
 20
86.3099503528
 10
590.0994818548
 20
86.4160104758
 10
589.7779482799
 20
86.3590486588
 10
589.5420453687
 20
86.1452375984
 10
589.4173368623
 20
85.7977470406
 10
589.4173368623
 20
85.3542329794
 10
589.5420453687
 20
84.862757045
 10
589.7779482799
 20
84.3765782809
 10
590.0994818548
 20
83.9483817001
 10
590.4718029417
 20
83.6245690463
 10
590.8545647736
 20
83.440230445
 10
591.2062891669
 20
83.415341844
 10
591.4888613259
 20
83.5526003092
 10
591.6716601726
 20
83.8371317564
 10
591.7348766157
 20
84.2381027881
  0
LWPOLYLINE
  5
39A
330
1F
100
AcDbEntity
  8
0
  6
Continuous
 62
     7
370
    25
100
AcDbPolyline
 90
       20
 70
   128
 43
0.0
 10
594.9168571311
 20
82.4011845365
 10
594.853640688
 20
82.8751437198
 10
594.6708418412
 20
83.370730223
 10
594.3882696822
 20
83.8342395586
 10
594.036545289
 20
84.2154432981
 10
593.6537834571
 20
84.4730321012
 10
593.2814623702
 20
84.5790922242
 10
592.9599287952
 20
84.5221304072
 10
592.7240258841
 20
84.3083193468
 10
592.5993173777
 20
83.960828789
 10
592.5993173777
 20
83.5173147278
 10
592.7240258841
 20
83.0258387934
 10
592.9599287952
 20
82.5396600293
 10
593.2814623702
 20
82.1114634485
 10
593.6537834571
 20
81.7876507947
 10
594.036545289
 20
81.6033121934
 10
594.3882696822
 20
81.5784235924
 10
594.6708418412
 20
81.7156820576
 10
594.853640688
 20
82.0002135048
 10
594.9168571311
 20
82.4011845365
  0
LWPOLYLINE
  5
39B
330
1F
100
AcDbEntity
  8
0
  6
Continuous
 62
     7
370
    25
100
AcDbPolyline
 90
       20
 70
   128
 43
0.0
 10
598.0988376464
 20
80.5642662849
 10
598.0356212033
 20
81.0382254682
 10
597.8528223565
 20
81.5338119714
 10
597.5702501975
 20
81.997321307
 10
597.2185258043
 20
82.3785250465
 10
596.8357639724
 20
82.6361138496
 10
596.4634428855
 20
82.7421739726
 10
596.1419093105
 20
82.6852121555
 10
595.9060063994
 20
82.4714010952
 10
595.781297893
 20
82.1239105374
 10
595.781297893
 20
81.6803964762
 10
595.9060063994
 20
81.1889205418
 10
596.1419093105
 20
80.7027417777
 10
596.4634428855
 20
80.2745451969
 10
596.8357639724
 20
79.9507325431
 10
597.2185258043
 20
79.7663939418
 10
597.5702501975
 20
79.7415053408
 10
597.8528223565
 20
79.878763806
 10
598.0356212033
 20
80.1632952532
 10
598.0988376464
 20
80.5642662849
  0
LWPOLYLINE
  5
39C
330
1F
100
AcDbEntity
  8
0
  6
Continuous
 62
     7
370
    25
100
AcDbPolyline
 90
       20
 70
   128
 43
0.0
 10
601.2808181618
 20
78.7273480333
 10
601.2176017187
 20
79.2013072166
 10
601.0348028719
 20
79.6968937198
 10
600.7522307129
 20
80.1604030554
 10
600.4005063196
 20
80.5416067949
 10
600.0177444878
 20
80.799195598
 10
599.6454234009
 20
80.905255721
 10
599.3238898259
 20
80.8482939039
 10
599.0879869148
 20
80.6344828436
 10
598.9632784083
 20
80.2869922858
 10
598.9632784083
 20
79.8434782246
 10
599.0879869148
 20
79.3520022902
 10
599.3238898259
 20
78.8658235261
 10
599.6454234009
 20
78.4376269453
 10
600.0177444878
 20
78.1138142915
 10
600.4005063196
 20
77.9294756902
 10
600.7522307129
 20
77.9045870892
 10
601.0348028719
 20
78.0418455544
 10
601.2176017187
 20
78.3263770016
 10
601.2808181618
 20
78.7273480333
  0
LWPOLYLINE
  5
39D
330
1F
100
AcDbEntity
  8
0
  6
Continuous
 62
     7
370
    25
100
AcDbPolyline
 90
       20
 70
   128
 43
0.0
 10
604.4627986771
 20
76.8904297817
 10
604.399582234
 20
77.364388965
 10
604.2167833872
 20
77.8599754682
 10
603.9342112282
 20
78.3234848038
 10
603.582486835
 20
78.7046885433
 10
603.1997250031
 20
78.9622773464
 10
602.8274039162
 20
79.0683374694
 10
602.5058703412
 20
79.0113756523
 10
602.2699674301
 20
78.797564592
 10
602.1452589237
 20
78.4500740342
 10
602.1452589237
 20
78.006559973
 10
602.2699674301
 20
77.5150840386
 10
602.5058703412
 20
77.0289052745
 10
602.8274039162
 20
76.6007086937
 10
603.1997250031
 20
76.2768960399
 10
603.582486835
 20
76.0925574386
 10
603.9342112282
 20
76.0676688376
 10
604.2167833872
 20
76.2049273028
 10
604.399582234
 20
76.48945875
 10
604.4627986771
 20
76.8904297817
  0
LWPOLYLINE
  5
39E
330
1F
100
AcDbEntity
  8
0
  6
Continuous
 62
     7
370
    25
100
AcDbPolyline
 90
       20
 70
   128
 43
0.0
 10
607.6447791924
 20
75.0535115301
 10
607.5815627493
 20
75.5274707134
 10
607.3987639026
 20
76.0230572166
 10
607.1161917436
 20
76.4865665522
 10
606.7644673503
 20
76.8677702917
 10
606.3817055184
 20
77.1253590948
 10
606.0093844315
 20
77.2314192178
 10
605.6878508566
 20
77.1744574007
 10
605.4519479454
 20
76.9606463404
 10
605.327239439
 20
76.6131557826
 10
605.327239439
 20
76.1696417214
 10
605.4519479454
 20
75.678165787
 10
605.6878508566
 20
75.1919870229
 10
606.0093844315
 20
74.7637904421
 10
606.3817055184
 20
74.4399777883
 10
606.7644673503
 20
74.255639187
 10
607.1161917436
 20
74.230750586
 10
607.3987639026
 20
74.3680090512
 10
607.5815627493
 20
74.6525404984
 10
607.6447791924
 20
75.0535115301
  0
LWPOLYLINE
  5
39F
330
1F
100
AcDbEntity
  8
0
  6
Continuous
 62
     7
370
    25
100
AcDbPolyline
 90
       20
 70
   128
 43
0.0
 10
610.8267597078
 20
73.2165932785
 10
610.7635432647
 20
73.6905524618
 10
610.5807444179
 20
74.186138965
 10
610.2981722589
 20
74.6496483006
 10
609.9464478657
 20
75.0308520401
 10
609.5636860338
 20
75.2884408431
 10
609.1913649469
 20
75.3945009662
 10
608.8698313719
 20
75.3375391491
 10
608.6339284608
 20
75.1237280888
 10
608.5092199544
 20
74.776237531
 10
608.5092199544
 20
74.3327234698
 10
608.6339284608
 20
73.8412475354
 10
608.8698313719
 20
73.3550687713
 10
609.1913649469
 20
72.9268721905
 10
609.5636860338
 20
72.6030595367
 10
609.9464478657
 20
72.4187209354
 10
610.2981722589
 20
72.3938323343
 10
610.5807444179
 20
72.5310907996
 10
610.7635432647
 20
72.8156222468
 10
610.8267597078
 20
73.2165932785
  0
LWPOLYLINE
  5
3A0
330
1F
100
AcDbEntity
  8
0
  6
Continuous
 62
     7
370
    25
100
AcDbPolyline
 90
       20
 70
   128
 43
0.0
 10
614.0087402231
 20
71.3796750269
 10
613.94552378
 20
71.8536342102
 10
613.7627249332
 20
72.3492207134
 10
613.4801527742
 20
72.812730049
 10
613.128428381
 20
73.1939337885
 10
612.7456665491
 20
73.4515225915
 10
612.3733454622
 20
73.5575827146
 10
612.0518118872
 20
73.5006208975
 10
611.8159089761
 20
73.2868098372
 10
611.6912004697
 20
72.9393192794
 10
611.6912004697
 20
72.4958052182
 10
611.8159089761
 20
72.0043292838
 10
612.0518118872
 20
71.5181505197
 10
612.3733454622
 20
71.0899539389
 10
612.7456665491
 20
70.7661412851
 10
613.128428381
 20
70.5818026838
 10
613.4801527742
 20
70.5569140827
 10
613.7627249332
 20
70.694172548
 10
613.94552378
 20
70.9787039952
 10
614.0087402231
 20
71.3796750269
  0
LWPOLYLINE
  5
3A1
330
1F
100
AcDbEntity
  8
0
  6
Continuous
 62
     7
370
    25
100
AcDbPolyline
 90
       20
 70
   128
 43
0.0
 10
547.187149401
 20
106.280524657
 10
547.1239329579
 20
106.7544838404
 10
546.9411341111
 20
107.2500703436
 10
546.6585619521
 20
107.7135796792
 10
546.3068375589
 20
108.0947834186
 10
545.924075727
 20
108.3523722217
 10
545.5517546401
 20
108.4584323447
 10
545.2302210651
 20
108.4014705277
 10
544.994318154
 20
108.1876594673
 10
544.8696096476
 20
107.8401689096
 10
544.8696096476
 20
107.3966548483
 10
544.994318154
 20
106.9051789139
 10
545.2302210651
 20
106.4190001498
 10
545.5517546401
 20
105.9908035691
 10
545.924075727
 20
105.6669909153
 10
546.3068375589
 20
105.482652314
 10
546.6585619521
 20
105.4577637129
 10
546.9411341111
 20
105.5950221782
 10
547.1239329579
 20
105.8795536253
 10
547.187149401
 20
106.280524657
  0
LWPOLYLINE
  5
3A2
330
1F
100
AcDbEntity
  8
0
  6
Continuous
 62
     7
370
    25
100
AcDbPolyline
 90
       20
 70
   128
 43
0.0
 10
550.3691299163
 20
104.4436064054
 10
550.3059134732
 20
104.9175655888
 10
550.1231146264
 20
105.413152092
 10
549.8405424674
 20
105.8766614276
 10
549.4888180742
 20
106.257865167
 10
549.1060562423
 20
106.5154539701
 10
548.7337351554
 20
106.6215140931
 10
548.4122015804
 20
106.5645522761
 10
548.1762986693
 20
106.3507412157
 10
548.0515901629
 20
106.003250658
 10
548.0515901629
 20
105.5597365967
 10
548.1762986693
 20
105.0682606623
 10
548.4122015804
 20
104.5820818982
 10
548.7337351554
 20
104.1538853175
 10
549.1060562423
 20
103.8300726637
 10
549.4888180742
 20
103.6457340624
 10
549.8405424674
 20
103.6208454613
 10
550.1231146264
 20
103.7581039266
 10
550.3059134732
 20
104.0426353737
 10
550.3691299163
 20
104.4436064054
  0
LWPOLYLINE
  5
3A3
330
1F
100
AcDbEntity
  8
0
  6
Continuous
 62
     7
370
    25
100
AcDbPolyline
 90
       20
 70
   128
 43
0.0
 10
553.5511104317
 20
102.6066881538
 10
553.4878939886
 20
103.0806473372
 10
553.3050951418
 20
103.5762338404
 10
553.0225229828
 20
104.039743176
 10
552.6707985896
 20
104.4209469154
 10
552.2880367577
 20
104.6785357185
 10
551.9157156708
 20
104.7845958415
 10
551.5941820958
 20
104.7276340245
 10
551.3582791847
 20
104.5138229641
 10
551.2335706782
 20
104.1663324064
 10
551.2335706782
 20
103.7228183451
 10
551.3582791847
 20
103.2313424107
 10
551.5941820958
 20
102.7451636466
 10
551.9157156708
 20
102.3169670659
 10
552.2880367577
 20
101.9931544121
 10
552.6707985896
 20
101.8088158108
 10
553.0225229828
 20
101.7839272097
 10
553.3050951418
 20
101.921185675
 10
553.4878939886
 20
102.2057171221
 10
553.5511104317
 20
102.6066881538
  0
LWPOLYLINE
  5
3A4
330
1F
100
AcDbEntity
  8
0
  6
Continuous
 62
     7
370
    25
100
AcDbPolyline
 90
       20
 70
   128
 43
0.0
 10
556.733090947
 20
100.7697699022
 10
556.6698745039
 20
101.2437290856
 10
556.4870756571
 20
101.7393155888
 10
556.2045034981
 20
102.2028249244
 10
555.8527791049
 20
102.5840286638
 10
555.470017273
 20
102.8416174669
 10
555.0976961861
 20
102.9476775899
 10
554.7761626111
 20
102.8907157729
 10
554.5402597
 20
102.6769047125
 10
554.4155511936
 20
102.3294141548
 10
554.4155511936
 20
101.8859000935
 10
554.5402597
 20
101.3944241591
 10
554.7761626111
 20
100.908245395
 10
555.0976961861
 20
100.4800488143
 10
555.470017273
 20
100.1562361605
 10
555.8527791049
 20
99.9718975592
 10
556.2045034981
 20
99.9470089581
 10
556.4870756571
 20
100.0842674234
 10
556.6698745039
 20
100.3687988705
 10
556.733090947
 20
100.7697699022
  0
LWPOLYLINE
  5
3A5
330
1F
100
AcDbEntity
  8
0
  6
Continuous
 62
     7
370
    25
100
AcDbPolyline
 90
       20
 70
   128
 43
0.0
 10
559.9150714623
 20
98.9328516506
 10
559.8518550192
 20
99.406810834
 10
559.6690561725
 20
99.9023973372
 10
559.3864840135
 20
100.3659066728
 10
559.0347596202
 20
100.7471104122
 10
558.6519977883
 20
101.0046992153
 10
558.2796767015
 20
101.1107593383
 10
557.9581431265
 20
101.0537975213
 10
557.7222402153
 20
100.8399864609
 10
557.5975317089
 20
100.4924959032
 10
557.5975317089
 20
100.0489818419
 10
557.7222402153
 20
99.5575059075
 10
557.9581431265
 20
99.0713271434
 10
558.2796767015
 20
98.6431305627
 10
558.6519977883
 20
98.3193179089
 10
559.0347596202
 20
98.1349793076
 10
559.3864840135
 20
98.1100907065
 10
559.6690561725
 20
98.2473491718
 10
559.8518550192
 20
98.5318806189
 10
559.9150714623
 20
98.9328516506
  0
LWPOLYLINE
  5
3A6
330
1F
100
AcDbEntity
  8
0
  6
Continuous
 62
     7
370
    25
100
AcDbPolyline
 90
       20
 70
   128
 43
0.0
 10
563.0970519777
 20
97.095933399
 10
563.0338355346
 20
97.5698925824
 10
562.8510366878
 20
98.0654790856
 10
562.5684645288
 20
98.5289884212
 10
562.2167401356
 20
98.9101921606
 10
561.8339783037
 20
99.1677809637
 10
561.4616572168
 20
99.2738410867
 10
561.1401236418
 20
99.2168792697
 10
560.9042207307
 20
99.0030682093
 10
560.7795122243
 20
98.6555776516
 10
560.7795122243
 20
98.2120635903
 10
560.9042207307
 20
97.7205876559
 10
561.1401236418
 20
97.2344088918
 10
561.4616572168
 20
96.8062123111
 10
561.8339783037
 20
96.4823996573
 10
562.2167401356
 20
96.298061056
 10
562.5684645288
 20
96.2731724549
 10
562.8510366878
 20
96.4104309202
 10
563.0338355346
 20
96.6949623673
 10
563.0970519777
 20
97.095933399
  0
LWPOLYLINE
  5
3A7
330
1F
100
AcDbEntity
  8
0
  6
Continuous
 62
     7
370
    25
100
AcDbPolyline
 90
       20
 70
   128
 43
0.0
 10
566.279032493
 20
95.2590151474
 10
566.2158160499
 20
95.7329743308
 10
566.0330172031
 20
96.228560834
 10
565.7504450441
 20
96.6920701696
 10
565.3987206509
 20
97.073273909
 10
565.015958819
 20
97.3308627121
 10
564.6436377321
 20
97.4369228351
 10
564.3221041571
 20
97.3799610181
 10
564.086201246
 20
97.1661499577
 10
563.9614927396
 20
96.8186594
 10
563.9614927396
 20
96.3751453387
 10
564.086201246
 20
95.8836694043
 10
564.3221041571
 20
95.3974906402
 10
564.6436377321
 20
94.9692940595
 10
565.015958819
 20
94.6454814057
 10
565.3987206509
 20
94.4611428044
 10
565.7504450441
 20
94.4362542033
 10
566.0330172031
 20
94.5735126686
 10
566.2158160499
 20
94.8580441157
 10
566.279032493
 20
95.2590151474
  0
LWPOLYLINE
  5
3A8
330
1F
100
AcDbEntity
  8
0
  6
Continuous
 62
     7
370
    25
100
AcDbPolyline
 90
       20
 70
   128
 43
0.0
 10
569.4610130084
 20
93.4220968958
 10
569.3977965653
 20
93.8960560792
 10
569.2149977185
 20
94.3916425824
 10
568.9324255595
 20
94.855151918
 10
568.5807011663
 20
95.2363556574
 10
568.1979393344
 20
95.4939444605
 10
567.8256182475
 20
95.6000045835
 10
567.5040846725
 20
95.5430427665
 10
567.2681817614
 20
95.3292317061
 10
567.1434732549
 20
94.9817411484
 10
567.1434732549
 20
94.5382270871
 10
567.2681817614
 20
94.0467511527
 10
567.5040846725
 20
93.5605723886
 10
567.8256182475
 20
93.1323758079
 10
568.1979393344
 20
92.8085631541
 10
568.5807011663
 20
92.6242245528
 10
568.9324255595
 20
92.5993359517
 10
569.2149977185
 20
92.736594417
 10
569.3977965653
 20
93.0211258641
 10
569.4610130084
 20
93.4220968958
  0
LWPOLYLINE
  5
3A9
330
1F
100
AcDbEntity
  8
0
  6
Continuous
 62
     7
370
    25
100
AcDbPolyline
 90
       20
 70
   128
 43
0.0
 10
572.6429935237
 20
91.5851786442
 10
572.5797770806
 20
92.0591378276
 10
572.3969782338
 20
92.5547243308
 10
572.1144060748
 20
93.0182336664
 10
571.7626816816
 20
93.3994374058
 10
571.3799198497
 20
93.6570262089
 10
571.0075987628
 20
93.7630863319
 10
570.6860651878
 20
93.7061245149
 10
570.4501622767
 20
93.4923134545
 10
570.3254537703
 20
93.1448228968
 10
570.3254537703
 20
92.7013088355
 10
570.4501622767
 20
92.2098329011
 10
570.6860651878
 20
91.723654137
 10
571.0075987628
 20
91.2954575563
 10
571.3799198497
 20
90.9716449025
 10
571.7626816816
 20
90.7873063012
 10
572.1144060748
 20
90.7624177001
 10
572.3969782338
 20
90.8996761654
 10
572.5797770806
 20
91.1842076125
 10
572.6429935237
 20
91.5851786442
  0
LWPOLYLINE
  5
3AA
330
1F
100
AcDbEntity
  8
0
  6
Continuous
 62
     7
370
    25
100
AcDbPolyline
 90
       20
 70
   128
 43
0.0
 10
575.824974039
 20
89.7482603926
 10
575.7617575959
 20
90.222219576
 10
575.5789587492
 20
90.7178060792
 10
575.2963865902
 20
91.1813154148
 10
574.9446621969
 20
91.5625191542
 10
574.561900365
 20
91.8201079573
 10
574.1895792781
 20
91.9261680803
 10
573.8680457032
 20
91.8692062633
 10
573.632142792
 20
91.6553952029
 10
573.5074342856
 20
91.3079046452
 10
573.5074342856
 20
90.8643905839
 10
573.632142792
 20
90.3729146495
 10
573.8680457032
 20
89.8867358854
 10
574.1895792781
 20
89.4585393047
 10
574.561900365
 20
89.1347266509
 10
574.9446621969
 20
88.9503880496
 10
575.2963865902
 20
88.9254994485
 10
575.5789587492
 20
89.0627579138
 10
575.7617575959
 20
89.3472893609
 10
575.824974039
 20
89.7482603926
  0
LWPOLYLINE
  5
3AB
330
1F
100
AcDbEntity
  8
0
  6
Continuous
 62
     7
370
    25
100
AcDbPolyline
 90
       20
 70
   128
 43
0.0
 10
579.0069545544
 20
87.911342141
 10
578.9437381113
 20
88.3853013244
 10
578.7609392645
 20
88.8808878276
 10
578.4783671055
 20
89.3443971632
 10
578.1266427123
 20
89.7256009026
 10
577.7438808804
 20
89.9831897057
 10
577.3715597935
 20
90.0892498287
 10
577.0500262185
 20
90.0322880117
 10
576.8141233074
 20
89.8184769513
 10
576.689414801
 20
89.4709863936
 10
576.689414801
 20
89.0274723323
 10
576.8141233074
 20
88.5359963979
 10
577.0500262185
 20
88.0498176338
 10
577.3715597935
 20
87.6216210531
 10
577.7438808804
 20
87.2978083993
 10
578.1266427123
 20
87.113469798
 10
578.4783671055
 20
87.0885811969
 10
578.7609392645
 20
87.2258396622
 10
578.9437381113
 20
87.5103711093
 10
579.0069545544
 20
87.911342141
  0
LWPOLYLINE
  5
3AC
330
1F
100
AcDbEntity
  8
0
  6
Continuous
 62
     7
370
    25
100
AcDbPolyline
 90
       20
 70
   128
 43
0.0
 10
582.1889350697
 20
86.0744238894
 10
582.1257186266
 20
86.5483830728
 10
581.9429197798
 20
87.0439695759
 10
581.6603476208
 20
87.5074789116
 10
581.3086232276
 20
87.888682651
 10
580.9258613957
 20
88.1462714541
 10
580.5535403088
 20
88.2523315771
 10
580.2320067338
 20
88.1953697601
 10
579.9961038227
 20
87.9815586997
 10
579.8713953163
 20
87.634068142
 10
579.8713953163
 20
87.1905540807
 10
579.9961038227
 20
86.6990781463
 10
580.2320067338
 20
86.2128993822
 10
580.5535403088
 20
85.7847028015
 10
580.9258613957
 20
85.4608901477
 10
581.3086232276
 20
85.2765515464
 10
581.6603476208
 20
85.2516629453
 10
581.9429197798
 20
85.3889214106
 10
582.1257186266
 20
85.6734528577
 10
582.1889350697
 20
86.0744238894
  0
LWPOLYLINE
  5
3AD
330
1F
100
AcDbEntity
  8
0
  6
Continuous
 62
     7
370
    25
100
AcDbPolyline
 90
       20
 70
   128
 43
0.0
 10
585.3709155851
 20
84.2375056378
 10
585.307699142
 20
84.7114648212
 10
585.1249002952
 20
85.2070513243
 10
584.8423281362
 20
85.67056066
 10
584.490603743
 20
86.0517643994
 10
584.1078419111
 20
86.3093532025
 10
583.7355208242
 20
86.4154133255
 10
583.4139872492
 20
86.3584515085
 10
583.1780843381
 20
86.1446404481
 10
583.0533758316
 20
85.7971498904
 10
583.0533758316
 20
85.3536358291
 10
583.1780843381
 20
84.8621598947
 10
583.4139872492
 20
84.3759811306
 10
583.7355208242
 20
83.9477845499
 10
584.1078419111
 20
83.6239718961
 10
584.490603743
 20
83.4396332947
 10
584.8423281362
 20
83.4147446937
 10
585.1249002952
 20
83.552003159
 10
585.307699142
 20
83.8365346061
 10
585.3709155851
 20
84.2375056378
  0
LWPOLYLINE
  5
3AE
330
1F
100
AcDbEntity
  8
0
  6
Continuous
 62
     7
370
    25
100
AcDbPolyline
 90
       20
 70
   128
 43
0.0
 10
588.5528961004
 20
82.4005873862
 10
588.4896796573
 20
82.8745465696
 10
588.3068808105
 20
83.3701330727
 10
588.0243086515
 20
83.8336424084
 10
587.6725842583
 20
84.2148461478
 10
587.2898224264
 20
84.4724349509
 10
586.9175013395
 20
84.5784950739
 10
586.5959677645
 20
84.5215332569
 10
586.3600648534
 20
84.3077221965
 10
586.235356347
 20
83.9602316388
 10
586.235356347
 20
83.5167175775
 10
586.3600648534
 20
83.0252416431
 10
586.5959677645
 20
82.539062879
 10
586.9175013395
 20
82.1108662983
 10
587.2898224264
 20
81.7870536445
 10
587.6725842583
 20
81.6027150431
 10
588.0243086515
 20
81.5778264421
 10
588.3068808105
 20
81.7150849073
 10
588.4896796573
 20
81.9996163545
 10
588.5528961004
 20
82.4005873862
  0
LWPOLYLINE
  5
3AF
330
1F
100
AcDbEntity
  8
0
  6
Continuous
 62
     7
370
    25
100
AcDbPolyline
 90
       20
 70
   128
 43
0.0
 10
591.7348766157
 20
80.5636691346
 10
591.6716601726
 20
81.037628318
 10
591.4888613259
 20
81.5332148211
 10
591.2062891669
 20
81.9967241568
 10
590.8545647736
 20
82.3779278962
 10
590.4718029417
 20
82.6355166993
 10
590.0994818548
 20
82.7415768223
 10
589.7779482799
 20
82.6846150053
 10
589.5420453687
 20
82.4708039449
 10
589.4173368623
 20
82.1233133872
 10
589.4173368623
 20
81.6797993259
 10
589.5420453687
 20
81.1883233915
 10
589.7779482799
 20
80.7021446274
 10
590.0994818548
 20
80.2739480467
 10
590.4718029417
 20
79.9501353929
 10
590.8545647736
 20
79.7657967915
 10
591.2062891669
 20
79.7409081905
 10
591.4888613259
 20
79.8781666557
 10
591.6716601726
 20
80.1626981029
 10
591.7348766157
 20
80.5636691346
  0
LWPOLYLINE
  5
3B0
330
1F
100
AcDbEntity
  8
0
  6
Continuous
 62
     7
370
    25
100
AcDbPolyline
 90
       20
 70
   128
 43
0.0
 10
594.9168571311
 20
78.726750883
 10
594.853640688
 20
79.2007100664
 10
594.6708418412
 20
79.6962965695
 10
594.3882696822
 20
80.1598059052
 10
594.036545289
 20
80.5410096446
 10
593.6537834571
 20
80.7985984477
 10
593.2814623702
 20
80.9046585707
 10
592.9599287952
 20
80.8476967537
 10
592.7240258841
 20
80.6338856933
 10
592.5993173777
 20
80.2863951356
 10
592.5993173777
 20
79.8428810743
 10
592.7240258841
 20
79.3514051399
 10
592.9599287952
 20
78.8652263758
 10
593.2814623702
 20
78.4370297951
 10
593.6537834571
 20
78.1132171413
 10
594.036545289
 20
77.9288785399
 10
594.3882696822
 20
77.9039899389
 10
594.6708418412
 20
78.0412484041
 10
594.853640688
 20
78.3257798513
 10
594.9168571311
 20
78.726750883
  0
LWPOLYLINE
  5
3B1
330
1F
100
AcDbEntity
  8
0
  6
Continuous
 62
     7
370
    25
100
AcDbPolyline
 90
       20
 70
   128
 43
0.0
 10
598.0988376464
 20
76.8898326314
 10
598.0356212033
 20
77.3637918148
 10
597.8528223565
 20
77.8593783179
 10
597.5702501975
 20
78.3228876536
 10
597.2185258043
 20
78.704091393
 10
596.8357639724
 20
78.9616801961
 10
596.4634428855
 20
79.0677403191
 10
596.1419093105
 20
79.0107785021
 10
595.9060063994
 20
78.7969674417
 10
595.781297893
 20
78.449476884
 10
595.781297893
 20
78.0059628227
 10
595.9060063994
 20
77.5144868883
 10
596.1419093105
 20
77.0283081242
 10
596.4634428855
 20
76.6001115435
 10
596.8357639724
 20
76.2762988897
 10
597.2185258043
 20
76.0919602883
 10
597.5702501975
 20
76.0670716873
 10
597.8528223565
 20
76.2043301525
 10
598.0356212033
 20
76.4888615997
 10
598.0988376464
 20
76.8898326314
  0
LWPOLYLINE
  5
3B2
330
1F
100
AcDbEntity
  8
0
  6
Continuous
 62
     7
370
    25
100
AcDbPolyline
 90
       20
 70
   128
 43
0.0
 10
601.2808181618
 20
75.0529143798
 10
601.2176017187
 20
75.5268735631
 10
601.0348028719
 20
76.0224600663
 10
600.7522307129
 20
76.485969402
 10
600.4005063196
 20
76.8671731414
 10
600.0177444878
 20
77.1247619445
 10
599.6454234009
 20
77.2308220675
 10
599.3238898259
 20
77.1738602505
 10
599.0879869148
 20
76.9600491901
 10
598.9632784083
 20
76.6125586324
 10
598.9632784083
 20
76.1690445711
 10
599.0879869148
 20
75.6775686367
 10
599.3238898259
 20
75.1913898726
 10
599.6454234009
 20
74.7631932919
 10
600.0177444878
 20
74.4393806381
 10
600.4005063196
 20
74.2550420367
 10
600.7522307129
 20
74.2301534357
 10
601.0348028719
 20
74.3674119009
 10
601.2176017187
 20
74.6519433481
 10
601.2808181618
 20
75.0529143798
  0
LWPOLYLINE
  5
3B3
330
1F
100
AcDbEntity
  8
0
  6
Continuous
 62
     7
370
    25
100
AcDbPolyline
 90
       20
 70
   128
 43
0.0
 10
604.4627986771
 20
73.2159961282
 10
604.399582234
 20
73.6899553115
 10
604.2167833872
 20
74.1855418147
 10
603.9342112282
 20
74.6490511504
 10
603.582486835
 20
75.0302548898
 10
603.1997250031
 20
75.2878436929
 10
602.8274039162
 20
75.3939038159
 10
602.5058703412
 20
75.3369419989
 10
602.2699674301
 20
75.1231309385
 10
602.1452589237
 20
74.7756403808
 10
602.1452589237
 20
74.3321263195
 10
602.2699674301
 20
73.8406503851
 10
602.5058703412
 20
73.354471621
 10
602.8274039162
 20
72.9262750403
 10
603.1997250031
 20
72.6024623865
 10
603.582486835
 20
72.4181237851
 10
603.9342112282
 20
72.3932351841
 10
604.2167833872
 20
72.5304936493
 10
604.399582234
 20
72.8150250965
 10
604.4627986771
 20
73.2159961282
  0
LWPOLYLINE
  5
3B4
330
1F
100
AcDbEntity
  8
0
  6
Continuous
 62
     7
370
    25
100
AcDbPolyline
 90
       20
 70
   128
 43
0.0
 10
607.6447791924
 20
71.3790778766
 10
607.5815627493
 20
71.8530370599
 10
607.3987639026
 20
72.3486235631
 10
607.1161917436
 20
72.8121328988
 10
606.7644673503
 20
73.1933366382
 10
606.3817055184
 20
73.4509254413
 10
606.0093844315
 20
73.5569855643
 10
605.6878508566
 20
73.5000237473
 10
605.4519479454
 20
73.2862126869
 10
605.327239439
 20
72.9387221292
 10
605.327239439
 20
72.4952080679
 10
605.4519479454
 20
72.0037321335
 10
605.6878508566
 20
71.5175533694
 10
606.0093844315
 20
71.0893567887
 10
606.3817055184
 20
70.7655441349
 10
606.7644673503
 20
70.5812055335
 10
607.1161917436
 20
70.5563169325
 10
607.3987639026
 20
70.6935753977
 10
607.5815627493
 20
70.9781068449
 10
607.6447791924
 20
71.3790778766
  0
LWPOLYLINE
  5
3B5
330
1F
100
AcDbEntity
  8
0
  6
Continuous
 62
     7
370
    25
100
AcDbPolyline
 90
       20
 70
   128
 43
0.0
 10
610.8267597078
 20
69.542159625
 10
610.7635432647
 20
70.0161188083
 10
610.5807444179
 20
70.5117053115
 10
610.2981722589
 20
70.9752146471
 10
609.9464478657
 20
71.3564183866
 10
609.5636860338
 20
71.6140071897
 10
609.1913649469
 20
71.7200673127
 10
608.8698313719
 20
71.6631054957
 10
608.6339284608
 20
71.4492944353
 10
608.5092199544
 20
71.1018038776
 10
608.5092199544
 20
70.6582898163
 10
608.6339284608
 20
70.1668138819
 10
608.8698313719
 20
69.6806351178
 10
609.1913649469
 20
69.2524385371
 10
609.5636860338
 20
68.9286258833
 10
609.9464478657
 20
68.7442872819
 10
610.2981722589
 20
68.7193986809
 10
610.5807444179
 20
68.8566571461
 10
610.7635432647
 20
69.1411885933
 10
610.8267597078
 20
69.542159625
  0
LWPOLYLINE
  5
3B6
330
1F
100
AcDbEntity
  8
0
  6
Continuous
 62
     7
370
    25
100
AcDbPolyline
 90
       20
 70
   128
 43
0.0
 10
614.0087402231
 20
67.7052413734
 10
613.94552378
 20
68.1792005567
 10
613.7627249332
 20
68.6747870599
 10
613.4801527742
 20
69.1382963955
 10
613.128428381
 20
69.519500135
 10
612.7456665491
 20
69.7770889381
 10
612.3733454622
 20
69.8831490611
 10
612.0518118872
 20
69.8261872441
 10
611.8159089761
 20
69.6123761837
 10
611.6912004697
 20
69.2648856259
 10
611.6912004697
 20
68.8213715647
 10
611.8159089761
 20
68.3298956303
 10
612.0518118872
 20
67.8437168662
 10
612.3733454622
 20
67.4155202855
 10
612.7456665491
 20
67.0917076317
 10
613.128428381
 20
66.9073690303
 10
613.4801527742
 20
66.8824804293
 10
613.7627249332
 20
67.0197388945
 10
613.94552378
 20
67.3042703417
 10
614.0087402231
 20
67.7052413734
  0
ARC
  5
3B7
330
1F
100
AcDbEntity
  8
0
  6
Continuous
 62
     7
370
    25
100
AcDbCircle
 10
704.4985774476
 20
128.0420906273
 30
0.0
 40
8.963047364839007
100
AcDbArc
 50
60.2822058224
 51
84.0419446449
  0
ARC
  5
3B8
330
1F
100
AcDbEntity
  8
0
  6
Continuous
 62
     7
370
    25
100
AcDbCircle
 10
705.3196779397
 20
135.1406743999
 30
0.0
 40
1.819330768321145
100
AcDbArc
 50
86.5568011232
 51
122.4927727562
  0
LINE
  5
3B9
330
1F
100
AcDbEntity
  8
0
  6
Continuous
 62
     7
370
    25
100
AcDbLine
 10
704.3423457872
 20
136.6752056991
 30
0.0
 11
684.2590846665
 21
125.0813858356
 31
0.0
  0
ARC
  5
3BA
330
1F
100
AcDbEntity
  8
0
  6
Continuous
 62
     7
370
    25
100
AcDbCircle
 10
686.2925693275
 20
121.7173698503
 30
0.0
 40
3.930860391268973
100
AcDbArc
 50
121.1521759568
 51
142.5364754598
  0
ARC
  5
3BB
330
1F
100
AcDbEntity
  8
0
  6
Continuous
 62
     7
370
    25
100
AcDbCircle
 10
717.4525715206
 20
97.0998281534
 30
0.0
 40
43.64154022035466
100
AcDbArc
 50
141.7662167683
 51
158.2337830861
  0
ARC
  5
3BC
330
1F
100
AcDbEntity
  8
0
  6
Continuous
 62
     7
370
    25
100
AcDbCircle
 10
680.5537586785
 20
111.7761707445
 30
0.0
 40
3.931510955836802
100
AcDbArc
 50
157.4636696726
 51
178.8455908914
  0
LINE
  5
3BD
330
1F
100
AcDbEntity
  8
0
  6
Continuous
 62
     7
370
    25
100
AcDbLine
 10
676.6230456972
 20
111.8553784109
 30
0.0
 11
676.6230456972
 21
95.1971210387
 31
0.0
  0
LINE
  5
3BE
330
1F
100
AcDbEntity
  8
0
  6
Continuous
 62
     7
370
    25
100
AcDbLine
 10
617.9685381978
 20
61.3365946009
 30
0.0
 11
676.6230456972
 21
95.1971210387
 31
0.0
  0
LINE
  5
3BF
330
1F
100
AcDbEntity
  8
0
  6
Continuous
 62
     7
370
    25
100
AcDbLine
 10
617.9685381978
 20
95.9579250248
 30
0.0
 11
770.6328922559
 21
184.0891806961
 31
0.0
  0
LINE
  5
3C0
330
1F
100
AcDbEntity
  8
0
  6
Continuous
 62
     7
370
    25
100
AcDbLine
 10
770.6328922559
 20
149.4678502721
 30
0.0
 11
770.6328922559
 21
184.0891806961
 31
0.0
  0
LINE
  5
3C1
330
1F
100
AcDbEntity
  8
0
  6
Continuous
 62
     7
370
    25
100
AcDbLine
 10
712.8270508148
 20
116.0972483214
 30
0.0
 11
770.6328922559
 21
149.4678502721
 31
0.0
  0
LWPOLYLINE
  5
3C2
330
1F
100
AcDbEntity
  8
0
  6
Continuous
 62
     7
370
    25
100
AcDbPolyline
 90
       22
 70
   128
 43
0.0
 10
764.3396419034
 20
173.4339136163
 10
763.9227951381
 20
173.2658263353
 10
763.5429870373
 20
173.2577808159
 10
763.2339652174
 20
173.4104919376
 10
763.0231876232
 20
173.7103906473
 10
762.9293827689
 20
174.1308296283
 10
762.9608856276
 20
174.6344510322
 10
763.114897032
 20
175.1765058872
 10
763.3777323929
 20
175.7088302406
 10
763.726037635
 20
176.1841247376
 10
764.1288643092
 20
176.5601573763
 10
764.5504194976
 20
176.8035160065
 10
764.9532461717
 20
176.892577146
 10
765.3015514139
 20
176.8194273217
 10
765.5643867748
 20
176.5905662166
 10
765.7183981791
 20
176.2263291441
 10
765.7499010378
 20
175.7590801666
 10
765.6560961836
 20
175.2303364062
 10
765.4453185894
 20
174.6870790664
 10
765.1362967694
 20
174.1775789458
 10
764.7564886686
 20
173.7471073661
 10
764.3396419034
 20
173.4339136163
  0
LWPOLYLINE
  5
3C3
330
1F
100
AcDbEntity
  8
0
  6
Continuous
 62
     7
370
    25
100
AcDbPolyline
 90
       22
 70
   128
 43
0.0
 10
760.8041079974
 20
171.3928933367
 10
760.3872612322
 20
171.2248060558
 10
760.0074531314
 20
171.2167605363
 10
759.6984313114
 20
171.3694716581
 10
759.4876537172
 20
171.6693703677
 10
759.393848863
 20
172.0898093487
 10
759.4253517217
 20
172.5934307527
 10
759.579363126
 20
173.1354856077
 10
759.8421984869
 20
173.6678099611
 10
760.1905037291
 20
174.143104458
 10
760.5933304032
 20
174.5191370967
 10
761.0148855916
 20
174.7624957269
 10
761.4177122658
 20
174.8515568664
 10
761.7660175079
 20
174.7784070422
 10
762.0288528688
 20
174.5495459371
 10
762.1828642732
 20
174.1853088646
 10
762.2143671319
 20
173.7180598871
 10
762.1205622776
 20
173.1893161267
 10
761.9097846834
 20
172.6460587868
 10
761.6007628635
 20
172.1365586663
 10
761.2209547627
 20
171.7060870866
 10
760.8041079974
 20
171.3928933367
  0
LWPOLYLINE
  5
3C4
330
1F
100
AcDbEntity
  8
0
  6
Continuous
 62
     7
370
    25
100
AcDbPolyline
 90
       22
 70
   128
 43
0.0
 10
757.2685740915
 20
169.3518730572
 10
756.8517273263
 20
169.1837857762
 10
756.4719192254
 20
169.1757402568
 10
756.1628974055
 20
169.3284513785
 10
755.9521198113
 20
169.6283500881
 10
755.8583149571
 20
170.0487890692
 10
755.8898178158
 20
170.5524104731
 10
756.0438292201
 20
171.0944653281
 10
756.306664581
 20
171.6267896815
 10
756.6549698231
 20
172.1020841785
 10
757.0577964973
 20
172.4781168171
 10
757.4793516857
 20
172.7214754474
 10
757.8821783599
 20
172.8105365869
 10
758.230483602
 20
172.7373867626
 10
758.4933189629
 20
172.5085256575
 10
758.6473303672
 20
172.144288585
 10
758.6788332259
 20
171.6770396075
 10
758.5850283717
 20
171.1482958471
 10
758.3742507775
 20
170.6050385073
 10
758.0652289576
 20
170.0955383867
 10
757.6854208567
 20
169.665066807
 10
757.2685740915
 20
169.3518730572
  0
LWPOLYLINE
  5
3C5
330
1F
100
AcDbEntity
  8
0
  6
Continuous
 62
     7
370
    25
100
AcDbPolyline
 90
       22
 70
   128
 43
0.0
 10
753.7330401856
 20
167.3108527776
 10
753.3161934203
 20
167.1427654967
 10
752.9363853195
 20
167.1347199772
 10
752.6273634996
 20
167.287431099
 10
752.4165859054
 20
167.5873298086
 10
752.3227810511
 20
168.0077687896
 10
752.3542839098
 20
168.5113901936
 10
752.5082953142
 20
169.0534450486
 10
752.7711306751
 20
169.585769402
 10
753.1194359172
 20
170.0610638989
 10
753.5222625914
 20
170.4370965376
 10
753.9438177798
 20
170.6804551678
 10
754.3466444539
 20
170.7695163073
 10
754.6949496961
 20
170.6963664831
 10
754.957785057
 20
170.4675053779
 10
755.1117964613
 20
170.1032683055
 10
755.14329932
 20
169.6360193279
 10
755.0494944658
 20
169.1072755675
 10
754.8387168716
 20
168.5640182277
 10
754.5296950516
 20
168.0545181071
 10
754.1498869508
 20
167.6240465275
 10
753.7330401856
 20
167.3108527776
  0
LWPOLYLINE
  5
3C6
330
1F
100
AcDbEntity
  8
0
  6
Continuous
 62
     7
370
    25
100
AcDbPolyline
 90
       22
 70
   128
 43
0.0
 10
750.1975062796
 20
165.269832498
 10
749.7806595144
 20
165.1017452171
 10
749.4008514136
 20
165.0936996977
 10
749.0918295936
 20
165.2464108194
 10
748.8810519994
 20
165.546309529
 10
748.7872471452
 20
165.9667485101
 10
748.8187500039
 20
166.470369914
 10
748.9727614082
 20
167.012424769
 10
749.2355967691
 20
167.5447491224
 10
749.5839020113
 20
168.0200436194
 10
749.9867286854
 20
168.396076258
 10
750.4082838738
 20
168.6394348882
 10
750.811110548
 20
168.7284960278
 10
751.1594157901
 20
168.6553462035
 10
751.422251151
 20
168.4264850984
 10
751.5762625554
 20
168.0622480259
 10
751.6077654141
 20
167.5949990484
 10
751.5139605598
 20
167.066255288
 10
751.3031829656
 20
166.5229979481
 10
750.9941611457
 20
166.0134978276
 10
750.6143530449
 20
165.5830262479
 10
750.1975062796
 20
165.269832498
  0
LWPOLYLINE
  5
3C7
330
1F
100
AcDbEntity
  8
0
  6
Continuous
 62
     7
370
    25
100
AcDbPolyline
 90
       22
 70
   128
 43
0.0
 10
746.6619723737
 20
163.2288122185
 10
746.2451256085
 20
163.0607249376
 10
745.8653175076
 20
163.0526794181
 10
745.5562956877
 20
163.2053905399
 10
745.3455180935
 20
163.5052892495
 10
745.2517132393
 20
163.9257282305
 10
745.283216098
 20
164.4293496345
 10
745.4372275023
 20
164.9714044894
 10
745.7000628632
 20
165.5037288429
 10
746.0483681054
 20
165.9790233398
 10
746.4511947795
 20
166.3550559785
 10
746.8727499679
 20
166.5984146087
 10
747.2755766421
 20
166.6874757482
 10
747.6238818842
 20
166.614325924
 10
747.8867172451
 20
166.3854648188
 10
748.0407286494
 20
166.0212277463
 10
748.0722315081
 20
165.5539787688
 10
747.9784266539
 20
165.0252350084
 10
747.7676490597
 20
164.4819776686
 10
747.4586272398
 20
163.972477548
 10
747.0788191389
 20
163.5420059683
 10
746.6619723737
 20
163.2288122185
  0
LWPOLYLINE
  5
3C8
330
1F
100
AcDbEntity
  8
0
  6
Continuous
 62
     7
370
    25
100
AcDbPolyline
 90
       22
 70
   128
 43
0.0
 10
743.1264384678
 20
161.1877919389
 10
742.7095917025
 20
161.019704658
 10
742.3297836017
 20
161.0116591386
 10
742.0207617818
 20
161.1643702603
 10
741.8099841876
 20
161.4642689699
 10
741.7161793333
 20
161.884707951
 10
741.747682192
 20
162.3883293549
 10
741.9016935964
 20
162.9303842099
 10
742.1645289573
 20
163.4627085633
 10
742.5128341994
 20
163.9380030603
 10
742.9156608736
 20
164.3140356989
 10
743.337216062
 20
164.5573943291
 10
743.7400427361
 20
164.6464554687
 10
744.0883479783
 20
164.5733056444
 10
744.3511833392
 20
164.3444445393
 10
744.5051947435
 20
163.9802074668
 10
744.5366976022
 20
163.5129584893
 10
744.442892748
 20
162.9842147289
 10
744.2321151538
 20
162.440957389
 10
743.9230933338
 20
161.9314572685
 10
743.543285233
 20
161.5009856888
 10
743.1264384678
 20
161.1877919389
  0
LWPOLYLINE
  5
3C9
330
1F
100
AcDbEntity
  8
0
  6
Continuous
 62
     7
370
    25
100
AcDbPolyline
 90
       22
 70
   128
 43
0.0
 10
739.5909045618
 20
159.1467716594
 10
739.1740577966
 20
158.9786843784
 10
738.7942496958
 20
158.970638859
 10
738.4852278758
 20
159.1233499807
 10
738.2744502816
 20
159.4232486904
 10
738.1806454274
 20
159.8436876714
 10
738.2121482861
 20
160.3473090753
 10
738.3661596904
 20
160.8893639303
 10
738.6289950513
 20
161.4216882837
 10
738.9773002935
 20
161.8969827807
 10
739.3801269676
 20
162.2730154194
 10
739.801682156
 20
162.5163740496
 10
740.2045088302
 20
162.6054351891
 10
740.5528140724
 20
162.5322853649
 10
740.8156494332
 20
162.3034242597
 10
740.9696608376
 20
161.9391871872
 10
741.0011636963
 20
161.4719382097
 10
740.907358842
 20
160.9431944493
 10
740.6965812478
 20
160.3999371095
 10
740.3875594279
 20
159.8904369889
 10
740.0077513271
 20
159.4599654092
 10
739.5909045618
 20
159.1467716594
  0
LWPOLYLINE
  5
3CA
330
1F
100
AcDbEntity
  8
0
  6
Continuous
 62
     7
370
    25
100
AcDbPolyline
 90
       22
 70
   128
 43
0.0
 10
736.0553706559
 20
157.1057513798
 10
735.6385238907
 20
156.9376640989
 10
735.2587157898
 20
156.9296185794
 10
734.9496939699
 20
157.0823297012
 10
734.7389163757
 20
157.3822284108
 10
734.6451115215
 20
157.8026673918
 10
734.6766143802
 20
158.3062887958
 10
734.8306257845
 20
158.8483436508
 10
735.0934611454
 20
159.3806680042
 10
735.4417663876
 20
159.8559625011
 10
735.8445930617
 20
160.2319951398
 10
736.2661482501
 20
160.47535377
 10
736.6689749243
 20
160.5644149095
 10
737.0172801664
 20
160.4912650853
 10
737.2801155273
 20
160.2624039802
 10
737.4341269317
 20
159.8981669077
 10
737.4656297903
 20
159.4309179302
 10
737.3718249361
 20
158.9021741698
 10
737.1610473419
 20
158.3589168299
 10
736.852025522
 20
157.8494167094
 10
736.4722174211
 20
157.4189451297
 10
736.0553706559
 20
157.1057513798
  0
LWPOLYLINE
  5
3CB
330
1F
100
AcDbEntity
  8
0
  6
Continuous
 62
     7
370
    25
100
AcDbPolyline
 90
       22
 70
   128
 43
0.0
 10
732.51983675
 20
155.0647311003
 10
732.1029899847
 20
154.8966438193
 10
731.7231818839
 20
154.8885982999
 10
731.414160064
 20
155.0413094216
 10
731.2033824698
 20
155.3412081312
 10
731.1095776156
 20
155.7616471123
 10
731.1410804742
 20
156.2652685162
 10
731.2950918786
 20
156.8073233712
 10
731.5579272395
 20
157.3396477246
 10
731.9062324816
 20
157.8149422216
 10
732.3090591558
 20
158.1909748602
 10
732.7306143442
 20
158.4343334905
 10
733.1334410183
 20
158.52339463
 10
733.4817462605
 20
158.4502448057
 10
733.7445816214
 20
158.2213837006
 10
733.8985930257
 20
157.8571466281
 10
733.9300958844
 20
157.3898976506
 10
733.8362910302
 20
156.8611538902
 10
733.625513436
 20
156.3178965504
 10
733.316491616
 20
155.8083964298
 10
732.9366835152
 20
155.3779248501
 10
732.51983675
 20
155.0647311003
  0
LWPOLYLINE
  5
3CC
330
1F
100
AcDbEntity
  8
0
  6
Continuous
 62
     7
370
    25
100
AcDbPolyline
 90
       22
 70
   128
 43
0.0
 10
764.3396419034
 20
169.3512095568
 10
763.9227951381
 20
169.1831222759
 10
763.5429870373
 20
169.1750767565
 10
763.2339652174
 20
169.3277878782
 10
763.0231876232
 20
169.6276865878
 10
762.9293827689
 20
170.0481255689
 10
762.9608856276
 20
170.5517469728
 10
763.114897032
 20
171.0938018278
 10
763.3777323929
 20
171.6261261812
 10
763.726037635
 20
172.1014206782
 10
764.1288643092
 20
172.4774533168
 10
764.5504194976
 20
172.720811947
 10
764.9532461717
 20
172.8098730866
 10
765.3015514139
 20
172.7367232623
 10
765.5643867748
 20
172.5078621572
 10
765.7183981791
 20
172.1436250847
 10
765.7499010378
 20
171.6763761072
 10
765.6560961836
 20
171.1476323468
 10
765.4453185894
 20
170.6043750069
 10
765.1362967694
 20
170.0948748864
 10
764.7564886686
 20
169.6644033067
 10
764.3396419034
 20
169.3512095568
  0
LWPOLYLINE
  5
3CD
330
1F
100
AcDbEntity
  8
0
  6
Continuous
 62
     7
370
    25
100
AcDbPolyline
 90
       22
 70
   128
 43
0.0
 10
760.8041079974
 20
167.3101892773
 10
760.3872612322
 20
167.1421019964
 10
760.0074531314
 20
167.1340564769
 10
759.6984313114
 20
167.2867675987
 10
759.4876537172
 20
167.5866663083
 10
759.393848863
 20
168.0071052893
 10
759.4253517217
 20
168.5107266933
 10
759.579363126
 20
169.0527815482
 10
759.8421984869
 20
169.5851059016
 10
760.1905037291
 20
170.0604003986
 10
760.5933304032
 20
170.4364330373
 10
761.0148855916
 20
170.6797916675
 10
761.4177122658
 20
170.768852807
 10
761.7660175079
 20
170.6957029828
 10
762.0288528688
 20
170.4668418776
 10
762.1828642732
 20
170.1026048051
 10
762.2143671319
 20
169.6353558276
 10
762.1205622776
 20
169.1066120672
 10
761.9097846834
 20
168.5633547274
 10
761.6007628635
 20
168.0538546068
 10
761.2209547627
 20
167.6233830271
 10
760.8041079974
 20
167.3101892773
  0
LWPOLYLINE
  5
3CE
330
1F
100
AcDbEntity
  8
0
  6
Continuous
 62
     7
370
    25
100
AcDbPolyline
 90
       22
 70
   128
 43
0.0
 10
757.2685740915
 20
165.2691689977
 10
756.8517273263
 20
165.1010817168
 10
756.4719192254
 20
165.0930361974
 10
756.1628974055
 20
165.2457473191
 10
755.9521198113
 20
165.5456460287
 10
755.8583149571
 20
165.9660850098
 10
755.8898178158
 20
166.4697064137
 10
756.0438292201
 20
167.0117612687
 10
756.306664581
 20
167.5440856221
 10
756.6549698231
 20
168.0193801191
 10
757.0577964973
 20
168.3954127577
 10
757.4793516857
 20
168.6387713879
 10
757.8821783599
 20
168.7278325275
 10
758.230483602
 20
168.6546827032
 10
758.4933189629
 20
168.4258215981
 10
758.6473303672
 20
168.0615845256
 10
758.6788332259
 20
167.5943355481
 10
758.5850283717
 20
167.0655917877
 10
758.3742507775
 20
166.5223344478
 10
758.0652289576
 20
166.0128343273
 10
757.6854208567
 20
165.5823627476
 10
757.2685740915
 20
165.2691689977
  0
LWPOLYLINE
  5
3CF
330
1F
100
AcDbEntity
  8
0
  6
Continuous
 62
     7
370
    25
100
AcDbPolyline
 90
       22
 70
   128
 43
0.0
 10
753.7330401856
 20
163.2281487182
 10
753.3161934203
 20
163.0600614372
 10
752.9363853195
 20
163.0520159178
 10
752.6273634996
 20
163.2047270395
 10
752.4165859054
 20
163.5046257492
 10
752.3227810511
 20
163.9250647302
 10
752.3542839098
 20
164.4286861341
 10
752.5082953142
 20
164.9707409891
 10
752.7711306751
 20
165.5030653425
 10
753.1194359172
 20
165.9783598395
 10
753.5222625914
 20
166.3543924782
 10
753.9438177798
 20
166.5977511084
 10
754.3466444539
 20
166.6868122479
 10
754.6949496961
 20
166.6136624236
 10
754.957785057
 20
166.3848013185
 10
755.1117964613
 20
166.020564246
 10
755.14329932
 20
165.5533152685
 10
755.0494944658
 20
165.0245715081
 10
754.8387168716
 20
164.4813141683
 10
754.5296950516
 20
163.9718140477
 10
754.1498869508
 20
163.541342468
 10
753.7330401856
 20
163.2281487182
  0
LWPOLYLINE
  5
3D0
330
1F
100
AcDbEntity
  8
0
  6
Continuous
 62
     7
370
    25
100
AcDbPolyline
 90
       22
 70
   128
 43
0.0
 10
750.1975062796
 20
161.1871284386
 10
749.7806595144
 20
161.0190411577
 10
749.4008514136
 20
161.0109956382
 10
749.0918295936
 20
161.16370676
 10
748.8810519994
 20
161.4636054696
 10
748.7872471452
 20
161.8840444506
 10
748.8187500039
 20
162.3876658546
 10
748.9727614082
 20
162.9297207096
 10
749.2355967691
 20
163.462045063
 10
749.5839020113
 20
163.9373395599
 10
749.9867286854
 20
164.3133721986
 10
750.4082838738
 20
164.5567308288
 10
750.811110548
 20
164.6457919683
 10
751.1594157901
 20
164.5726421441
 10
751.422251151
 20
164.343781039
 10
751.5762625554
 20
163.9795439665
 10
751.6077654141
 20
163.512294989
 10
751.5139605598
 20
162.9835512286
 10
751.3031829656
 20
162.4402938887
 10
750.9941611457
 20
161.9307937682
 10
750.6143530449
 20
161.5003221885
 10
750.1975062796
 20
161.1871284386
  0
LWPOLYLINE
  5
3D1
330
1F
100
AcDbEntity
  8
0
  6
Continuous
 62
     7
370
    25
100
AcDbPolyline
 90
       22
 70
   128
 43
0.0
 10
746.6619723737
 20
159.1461081591
 10
746.2451256085
 20
158.9780208781
 10
745.8653175076
 20
158.9699753587
 10
745.5562956877
 20
159.1226864804
 10
745.3455180935
 20
159.42258519
 10
745.2517132393
 20
159.8430241711
 10
745.283216098
 20
160.346645575
 10
745.4372275023
 20
160.88870043
 10
745.7000628632
 20
161.4210247834
 10
746.0483681054
 20
161.8963192804
 10
746.4511947795
 20
162.272351919
 10
746.8727499679
 20
162.5157105493
 10
747.2755766421
 20
162.6047716888
 10
747.6238818842
 20
162.5316218645
 10
747.8867172451
 20
162.3027607594
 10
748.0407286494
 20
161.9385236869
 10
748.0722315081
 20
161.4712747094
 10
747.9784266539
 20
160.942530949
 10
747.7676490597
 20
160.3992736092
 10
747.4586272398
 20
159.8897734886
 10
747.0788191389
 20
159.4593019089
 10
746.6619723737
 20
159.1461081591
  0
LWPOLYLINE
  5
3D2
330
1F
100
AcDbEntity
  8
0
  6
Continuous
 62
     7
370
    25
100
AcDbPolyline
 90
       22
 70
   128
 43
0.0
 10
743.1264384678
 20
157.1050878795
 10
742.7095917025
 20
156.9370005986
 10
742.3297836017
 20
156.9289550791
 10
742.0207617818
 20
157.0816662009
 10
741.8099841876
 20
157.3815649105
 10
741.7161793333
 20
157.8020038915
 10
741.747682192
 20
158.3056252955
 10
741.9016935964
 20
158.8476801505
 10
742.1645289573
 20
159.3800045039
 10
742.5128341994
 20
159.8552990008
 10
742.9156608736
 20
160.2313316395
 10
743.337216062
 20
160.4746902697
 10
743.7400427361
 20
160.5637514092
 10
744.0883479783
 20
160.490601585
 10
744.3511833392
 20
160.2617404798
 10
744.5051947435
 20
159.8975034074
 10
744.5366976022
 20
159.4302544298
 10
744.442892748
 20
158.9015106694
 10
744.2321151538
 20
158.3582533296
 10
743.9230933338
 20
157.848753209
 10
743.543285233
 20
157.4182816294
 10
743.1264384678
 20
157.1050878795
  0
LWPOLYLINE
  5
3D3
330
1F
100
AcDbEntity
  8
0
  6
Continuous
 62
     7
370
    25
100
AcDbPolyline
 90
       22
 70
   128
 43
0.0
 10
739.5909045618
 20
155.0640675999
 10
739.1740577966
 20
154.895980319
 10
738.7942496958
 20
154.8879347996
 10
738.4852278758
 20
155.0406459213
 10
738.2744502816
 20
155.3405446309
 10
738.1806454274
 20
155.760983612
 10
738.2121482861
 20
156.2646050159
 10
738.3661596904
 20
156.8066598709
 10
738.6289950513
 20
157.3389842243
 10
738.9773002935
 20
157.8142787213
 10
739.3801269676
 20
158.1903113599
 10
739.801682156
 20
158.4336699901
 10
740.2045088302
 20
158.5227311297
 10
740.5528140724
 20
158.4495813054
 10
740.8156494332
 20
158.2207202003
 10
740.9696608376
 20
157.8564831278
 10
741.0011636963
 20
157.3892341503
 10
740.907358842
 20
156.8604903899
 10
740.6965812478
 20
156.3172330501
 10
740.3875594279
 20
155.8077329295
 10
740.0077513271
 20
155.3772613498
 10
739.5909045618
 20
155.0640675999
  0
LWPOLYLINE
  5
3D4
330
1F
100
AcDbEntity
  8
0
  6
Continuous
 62
     7
370
    25
100
AcDbPolyline
 90
       22
 70
   128
 43
0.0
 10
736.0553706559
 20
153.0230473204
 10
735.6385238907
 20
152.8549600395
 10
735.2587157898
 20
152.84691452
 10
734.9496939699
 20
152.9996256418
 10
734.7389163757
 20
153.2995243514
 10
734.6451115215
 20
153.7199633324
 10
734.6766143802
 20
154.2235847364
 10
734.8306257845
 20
154.7656395913
 10
735.0934611454
 20
155.2979639448
 10
735.4417663876
 20
155.7732584417
 10
735.8445930617
 20
156.1492910804
 10
736.2661482501
 20
156.3926497106
 10
736.6689749243
 20
156.4817108501
 10
737.0172801664
 20
156.4085610259
 10
737.2801155273
 20
156.1796999207
 10
737.4341269317
 20
155.8154628482
 10
737.4656297903
 20
155.3482138707
 10
737.3718249361
 20
154.8194701103
 10
737.1610473419
 20
154.2762127705
 10
736.852025522
 20
153.7667126499
 10
736.4722174211
 20
153.3362410702
 10
736.0553706559
 20
153.0230473204
  0
LWPOLYLINE
  5
3D5
330
1F
100
AcDbEntity
  8
0
  6
Continuous
 62
     7
370
    25
100
AcDbPolyline
 90
       22
 70
   128
 43
0.0
 10
764.3396419034
 20
165.2685054974
 10
763.9227951381
 20
165.1004182165
 10
763.5429870373
 20
165.092372697
 10
763.2339652174
 20
165.2450838188
 10
763.0231876232
 20
165.5449825284
 10
762.9293827689
 20
165.9654215094
 10
762.9608856276
 20
166.4690429134
 10
763.114897032
 20
167.0110977684
 10
763.3777323929
 20
167.5434221218
 10
763.726037635
 20
168.0187166187
 10
764.1288643092
 20
168.3947492574
 10
764.5504194976
 20
168.6381078876
 10
764.9532461717
 20
168.7271690271
 10
765.3015514139
 20
168.6540192029
 10
765.5643867748
 20
168.4251580978
 10
765.7183981791
 20
168.0609210253
 10
765.7499010378
 20
167.5936720478
 10
765.6560961836
 20
167.0649282874
 10
765.4453185894
 20
166.5216709475
 10
765.1362967694
 20
166.012170827
 10
764.7564886686
 20
165.5816992473
 10
764.3396419034
 20
165.2685054974
  0
LWPOLYLINE
  5
3D6
330
1F
100
AcDbEntity
  8
0
  6
Continuous
 62
     7
370
    25
100
AcDbPolyline
 90
       22
 70
   128
 43
0.0
 10
760.8041079974
 20
163.2274852178
 10
760.3872612322
 20
163.0593979369
 10
760.0074531314
 20
163.0513524175
 10
759.6984313114
 20
163.2040635392
 10
759.4876537172
 20
163.5039622488
 10
759.393848863
 20
163.9244012299
 10
759.4253517217
 20
164.4280226338
 10
759.579363126
 20
164.9700774888
 10
759.8421984869
 20
165.5024018422
 10
760.1905037291
 20
165.9776963392
 10
760.5933304032
 20
166.3537289778
 10
761.0148855916
 20
166.5970876081
 10
761.4177122658
 20
166.6861487476
 10
761.7660175079
 20
166.6129989233
 10
762.0288528688
 20
166.3841378182
 10
762.1828642732
 20
166.0199007457
 10
762.2143671319
 20
165.5526517682
 10
762.1205622776
 20
165.0239080078
 10
761.9097846834
 20
164.480650668
 10
761.6007628635
 20
163.9711505474
 10
761.2209547627
 20
163.5406789677
 10
760.8041079974
 20
163.2274852178
  0
LWPOLYLINE
  5
3D7
330
1F
100
AcDbEntity
  8
0
  6
Continuous
 62
     7
370
    25
100
AcDbPolyline
 90
       22
 70
   128
 43
0.0
 10
757.2685740915
 20
161.1864649383
 10
756.8517273263
 20
161.0183776574
 10
756.4719192254
 20
161.0103321379
 10
756.1628974055
 20
161.1630432597
 10
755.9521198113
 20
161.4629419693
 10
755.8583149571
 20
161.8833809503
 10
755.8898178158
 20
162.3870023543
 10
756.0438292201
 20
162.9290572093
 10
756.306664581
 20
163.4613815627
 10
756.6549698231
 20
163.9366760596
 10
757.0577964973
 20
164.3127086983
 10
757.4793516857
 20
164.5560673285
 10
757.8821783599
 20
164.645128468
 10
758.230483602
 20
164.5719786438
 10
758.4933189629
 20
164.3431175386
 10
758.6473303672
 20
163.9788804662
 10
758.6788332259
 20
163.5116314886
 10
758.5850283717
 20
162.9828877282
 10
758.3742507775
 20
162.4396303884
 10
758.0652289576
 20
161.9301302678
 10
757.6854208567
 20
161.4996586882
 10
757.2685740915
 20
161.1864649383
  0
LWPOLYLINE
  5
3D8
330
1F
100
AcDbEntity
  8
0
  6
Continuous
 62
     7
370
    25
100
AcDbPolyline
 90
       22
 70
   128
 43
0.0
 10
753.7330401856
 20
159.1454446587
 10
753.3161934203
 20
158.9773573778
 10
752.9363853195
 20
158.9693118584
 10
752.6273634996
 20
159.1220229801
 10
752.4165859054
 20
159.4219216897
 10
752.3227810511
 20
159.8423606708
 10
752.3542839098
 20
160.3459820747
 10
752.5082953142
 20
160.8880369297
 10
752.7711306751
 20
161.4203612831
 10
753.1194359172
 20
161.8956557801
 10
753.5222625914
 20
162.2716884187
 10
753.9438177798
 20
162.5150470489
 10
754.3466444539
 20
162.6041081885
 10
754.6949496961
 20
162.5309583642
 10
754.957785057
 20
162.3020972591
 10
755.1117964613
 20
161.9378601866
 10
755.14329932
 20
161.4706112091
 10
755.0494944658
 20
160.9418674487
 10
754.8387168716
 20
160.3986101088
 10
754.5296950516
 20
159.8891099883
 10
754.1498869508
 20
159.4586384086
 10
753.7330401856
 20
159.1454446587
  0
LWPOLYLINE
  5
3D9
330
1F
100
AcDbEntity
  8
0
  6
Continuous
 62
     7
370
    25
100
AcDbPolyline
 90
       22
 70
   128
 43
0.0
 10
750.1975062796
 20
157.1044243792
 10
749.7806595144
 20
156.9363370983
 10
749.4008514136
 20
156.9282915788
 10
749.0918295936
 20
157.0810027006
 10
748.8810519994
 20
157.3809014102
 10
748.7872471452
 20
157.8013403912
 10
748.8187500039
 20
158.3049617952
 10
748.9727614082
 20
158.8470166501
 10
749.2355967691
 20
159.3793410036
 10
749.5839020113
 20
159.8546355005
 10
749.9867286854
 20
160.2306681392
 10
750.4082838738
 20
160.4740267694
 10
750.811110548
 20
160.5630879089
 10
751.1594157901
 20
160.4899380847
 10
751.422251151
 20
160.2610769795
 10
751.5762625554
 20
159.896839907
 10
751.6077654141
 20
159.4295909295
 10
751.5139605598
 20
158.9008471691
 10
751.3031829656
 20
158.3575898293
 10
750.9941611457
 20
157.8480897087
 10
750.6143530449
 20
157.417618129
 10
750.1975062796
 20
157.1044243792
  0
LWPOLYLINE
  5
3DA
330
1F
100
AcDbEntity
  8
0
  6
Continuous
 62
     7
370
    25
100
AcDbPolyline
 90
       22
 70
   128
 43
0.0
 10
746.6619723737
 20
155.0634040996
 10
746.2451256085
 20
154.8953168187
 10
745.8653175076
 20
154.8872712993
 10
745.5562956877
 20
155.039982421
 10
745.3455180935
 20
155.3398811306
 10
745.2517132393
 20
155.7603201117
 10
745.283216098
 20
156.2639415156
 10
745.4372275023
 20
156.8059963706
 10
745.7000628632
 20
157.338320724
 10
746.0483681054
 20
157.813615221
 10
746.4511947795
 20
158.1896478596
 10
746.8727499679
 20
158.4330064898
 10
747.2755766421
 20
158.5220676294
 10
747.6238818842
 20
158.4489178051
 10
747.8867172451
 20
158.2200567
 10
748.0407286494
 20
157.8558196275
 10
748.0722315081
 20
157.38857065
 10
747.9784266539
 20
156.8598268896
 10
747.7676490597
 20
156.3165695497
 10
747.4586272398
 20
155.8070694292
 10
747.0788191389
 20
155.3765978495
 10
746.6619723737
 20
155.0634040996
  0
LWPOLYLINE
  5
3DB
330
1F
100
AcDbEntity
  8
0
  6
Continuous
 62
     7
370
    25
100
AcDbPolyline
 90
       22
 70
   128
 43
0.0
 10
743.1264384678
 20
153.0223838201
 10
742.7095917025
 20
152.8542965391
 10
742.3297836017
 20
152.8462510197
 10
742.0207617818
 20
152.9989621414
 10
741.8099841876
 20
153.2988608511
 10
741.7161793333
 20
153.7192998321
 10
741.747682192
 20
154.222921236
 10
741.9016935964
 20
154.764976091
 10
742.1645289573
 20
155.2973004444
 10
742.5128341994
 20
155.7725949414
 10
742.9156608736
 20
156.1486275801
 10
743.337216062
 20
156.3919862103
 10
743.7400427361
 20
156.4810473498
 10
744.0883479783
 20
156.4078975256
 10
744.3511833392
 20
156.1790364204
 10
744.5051947435
 20
155.8147993479
 10
744.5366976022
 20
155.3475503704
 10
744.442892748
 20
154.81880661
 10
744.2321151538
 20
154.2755492702
 10
743.9230933338
 20
153.7660491496
 10
743.543285233
 20
153.3355775699
 10
743.1264384678
 20
153.0223838201
  0
LWPOLYLINE
  5
3DC
330
1F
100
AcDbEntity
  8
0
  6
Continuous
 62
     7
370
    25
100
AcDbPolyline
 90
       22
 70
   128
 43
0.0
 10
739.5909045618
 20
150.9813635405
 10
739.1740577966
 20
150.8132762596
 10
738.7942496958
 20
150.8052307401
 10
738.4852278758
 20
150.9579418619
 10
738.2744502816
 20
151.2578405715
 10
738.1806454274
 20
151.6782795525
 10
738.2121482861
 20
152.1819009565
 10
738.3661596904
 20
152.7239558115
 10
738.6289950513
 20
153.2562801649
 10
738.9773002935
 20
153.7315746618
 10
739.3801269676
 20
154.1076073005
 10
739.801682156
 20
154.3509659307
 10
740.2045088302
 20
154.4400270702
 10
740.5528140724
 20
154.366877246
 10
740.8156494332
 20
154.1380161409
 10
740.9696608376
 20
153.7737790684
 10
741.0011636963
 20
153.3065300909
 10
740.907358842
 20
152.7777863305
 10
740.6965812478
 20
152.2345289906
 10
740.3875594279
 20
151.7250288701
 10
740.0077513271
 20
151.2945572904
 10
739.5909045618
 20
150.9813635405
  0
LINE
  5
3DD
330
1F
100
AcDbEntity
  8
0
  6
Continuous
 62
     7
370
    25
100
AcDbLine
 10
540.8938990484
 20
140.4521671192
 30
0.0
 11
693.5582531066
 21
228.5834227904
 31
0.0
  0
LINE
  5
3DE
330
1F
100
AcDbEntity
  8
0
  6
Continuous
 62
     7
370
    25
100
AcDbLine
 10
770.6328922559
 20
184.0891806961
 30
0.0
 11
693.5582531066
 21
228.5834227904
 31
0.0
  0
ARC
  5
3DF
330
1F
100
AcDbEntity
  8
0
  6
Continuous
 62
     7
370
    25
100
AcDbCircle
 10
612.8998452006
 20
82.7931993158
 30
0.0
 40
1.591310731029533
100
AcDbArc
 50
235.2271203834
 51
285.1231283472
  0
LINE
  5
3E0
330
1F
100
AcDbEntity
  8
0
  6
Continuous
 62
     7
370
    25
100
AcDbLine
 10
548.991476397
 20
117.8556564949
 30
0.0
 11
611.9922811928
 21
81.4860660348
 31
0.0
  0
ARC
  5
3E1
330
1F
100
AcDbEntity
  8
0
  6
Continuous
 62
     7
370
    25
100
AcDbCircle
 10
551.4758043575
 20
121.739473655
 30
0.0
 40
4.610414422716189
100
AcDbArc
 50
182.6054784857
 51
237.39452166
  0
LINE
  5
3E2
330
1F
100
AcDbEntity
  8
0
  6
Continuous
 62
     7
370
    25
100
AcDbLine
 10
546.8701560534
 20
130.5907118148
 30
0.0
 11
546.8701560534
 21
121.5298910983
 31
0.0
  0
ARC
  5
3E3
330
1F
100
AcDbEntity
  8
0
  6
Continuous
 62
     7
370
    25
100
AcDbCircle
 10
548.4622759296
 20
130.7221245694
 30
0.0
 40
1.597534041044845
100
AcDbArc
 50
135.4714849692
 51
184.7184682546
  0
LWPOLYLINE
  5
3E4
330
1F
100
AcDbEntity
  8
0
  6
Continuous
 62
     7
370
    25
100
AcDbPolyline
 90
       13
 70
   128
 43
0.0
 10
610.1767838688
 20
88.4934393633
 10
610.110640038
 20
89.209518667
 10
609.9155252735
 20
89.9660588059
 10
609.6012234442
 20
90.7251236982
 10
609.1834949563
 20
91.4486506609
 10
608.6832864605
 20
92.1003590307
 10
608.1256804995
 20
92.6475694287
 10
607.5386377644
 20
93.0628424406
 10
606.9515950293
 20
93.3253545435
 10
606.3939890683
 20
93.4219422845
 10
605.8937805725
 20
93.3477623509
 10
605.4760520846
 20
93.1065344344
 10
605.3565095693
 20
92.9881873999
  0
ARC
  5
3E5
330
1F
100
AcDbEntity
  8
0
  6
Continuous
 62
     7
370
    25
100
AcDbCircle
 10
608.5106787402
 20
88.2466891762
 30
0.0
 40
1.684277873268
100
AcDbArc
 50
287.3296024597
 51
8.4242701562
  0
ARC
  5
3E6
330
1F
100
AcDbEntity
  8
0
  6
Continuous
 62
     7
370
    25
100
AcDbCircle
 10
614.610978407
 20
76.7488467682
 30
0.0
 40
2.212152995663426
100
AcDbArc
 50
167.6263336948
 51
252.3682897725
  0
ARC
  5
3E7
330
1F
100
AcDbEntity
  8
0
  6
Continuous
 62
     7
370
    25
100
AcDbCircle
 10
614.610978407
 20
73.0744131147
 30
0.0
 40
2.212152995663179
100
AcDbArc
 50
167.6263336948
 51
252.3682897725
  0
ARC
  5
3E8
330
1F
100
AcDbEntity
  8
0
  6
Continuous
 62
     7
370
    25
100
AcDbCircle
 10
611.4289978917
 20
78.5857650198
 30
0.0
 40
2.212152995662414
100
AcDbArc
 50
167.6263336948
 51
252.3682897725
  0
ARC
  5
3E9
330
1F
100
AcDbEntity
  8
0
  6
Continuous
 62
     7
370
    25
100
AcDbCircle
 10
614.610978407
 20
69.3999794612
 30
0.0
 40
2.212152995663496
100
AcDbArc
 50
167.6263336948
 51
252.3682897725
  0
ARC
  5
3EA
330
1F
100
AcDbEntity
  8
0
  6
Continuous
 62
     7
370
    25
100
AcDbCircle
 10
611.4289978917
 20
74.9113313663
 30
0.0
 40
2.212152995662151
100
AcDbArc
 50
167.6263336947
 51
252.3682897726
  0
ARC
  5
3EB
330
1F
100
AcDbEntity
  8
0
  6
Continuous
 62
     7
370
    25
100
AcDbCircle
 10
608.2470173764
 20
80.4226832714
 30
0.0
 40
2.212152995662931
100
AcDbArc
 50
167.6263336948
 51
252.3682897725
  0
ARC
  5
3EC
330
1F
100
AcDbEntity
  8
0
  6
Continuous
 62
     7
370
    25
100
AcDbCircle
 10
611.4289978917
 20
71.2368977128
 30
0.0
 40
2.212152995662271
100
AcDbArc
 50
167.6263336948
 51
252.3682897725
  0
ARC
  5
3ED
330
1F
100
AcDbEntity
  8
0
  6
Continuous
 62
     7
370
    25
100
AcDbCircle
 10
608.2470173764
 20
76.7482496179
 30
0.0
 40
2.212152995661837
100
AcDbArc
 50
167.6263336947
 51
252.3682897726
  0
ARC
  5
3EE
330
1F
100
AcDbEntity
  8
0
  6
Continuous
 62
     7
370
    25
100
AcDbCircle
 10
605.065036861
 20
82.259601523
 30
0.0
 40
2.212152995661665
100
AcDbArc
 50
167.6263336947
 51
252.3682897726
  0
ARC
  5
3EF
330
1F
100
AcDbEntity
  8
0
  6
Continuous
 62
     7
370
    25
100
AcDbCircle
 10
608.2470173764
 20
73.0738159644
 30
0.0
 40
2.212152995662794
100
AcDbArc
 50
167.6263336948
 51
252.3682897725
  0
ARC
  5
3F0
330
1F
100
AcDbEntity
  8
0
  6
Continuous
 62
     7
370
    25
100
AcDbCircle
 10
605.065036861
 20
78.5851678695
 30
0.0
 40
2.212152995661824
100
AcDbArc
 50
167.6263336947
 51
252.3682897726
  0
ARC
  5
3F1
330
1F
100
AcDbEntity
  8
0
  6
Continuous
 62
     7
370
    25
100
AcDbCircle
 10
601.8830563457
 20
84.0965197746
 30
0.0
 40
2.212152995663258
100
AcDbArc
 50
167.6263336948
 51
252.3682897725
  0
ARC
  5
3F2
330
1F
100
AcDbEntity
  8
0
  6
Continuous
 62
     7
370
    25
100
AcDbCircle
 10
605.065036861
 20
74.910734216
 30
0.0
 40
2.212152995663217
100
AcDbArc
 50
167.6263336948
 51
252.3682897725
  0
ARC
  5
3F3
330
1F
100
AcDbEntity
  8
0
  6
Continuous
 62
     7
370
    25
100
AcDbCircle
 10
601.8830563457
 20
80.4220861211
 30
0.0
 40
2.212152995662643
100
AcDbArc
 50
167.6263336948
 51
252.3682897725
  0
ARC
  5
3F4
330
1F
100
AcDbEntity
  8
0
  6
Continuous
 62
     7
370
    25
100
AcDbCircle
 10
598.7010758303
 20
85.9334380262
 30
0.0
 40
2.212152995663578
100
AcDbArc
 50
167.6263336948
 51
252.3682897725
  0
ARC
  5
3F5
330
1F
100
AcDbEntity
  8
0
  6
Continuous
 62
     7
370
    25
100
AcDbCircle
 10
601.8830563457
 20
76.7476524676
 30
0.0
 40
2.212152995662163
100
AcDbArc
 50
167.6263336947
 51
252.3682897726
  0
ARC
  5
3F6
330
1F
100
AcDbEntity
  8
0
  6
Continuous
 62
     7
370
    25
100
AcDbCircle
 10
598.7010758303
 20
82.2590043727
 30
0.0
 40
2.212152995662888
100
AcDbArc
 50
167.6263336948
 51
252.3682897725
  0
ARC
  5
3F7
330
1F
100
AcDbEntity
  8
0
  6
Continuous
 62
     7
370
    25
100
AcDbCircle
 10
595.519095315
 20
87.7703562778
 30
0.0
 40
2.212152995663646
100
AcDbArc
 50
167.6263336948
 51
252.3682897725
  0
ARC
  5
3F8
330
1F
100
AcDbEntity
  8
0
  6
Continuous
 62
     7
370
    25
100
AcDbCircle
 10
598.7010758303
 20
78.5845707192
 30
0.0
 40
2.212152995661317
100
AcDbArc
 50
167.6263336947
 51
252.3682897726
  0
ARC
  5
3F9
330
1F
100
AcDbEntity
  8
0
  6
Continuous
 62
     7
370
    25
100
AcDbCircle
 10
595.519095315
 20
84.0959226243
 30
0.0
 40
2.212152995662299
100
AcDbArc
 50
167.6263336947
 51
252.3682897726
  0
ARC
  5
3FA
330
1F
100
AcDbEntity
  8
0
  6
Continuous
 62
     7
370
    25
100
AcDbCircle
 10
592.3371147997
 20
89.6072745294
 30
0.0
 40
2.212152995662435
100
AcDbArc
 50
167.6263336948
 51
252.3682897725
  0
ARC
  5
3FB
330
1F
100
AcDbEntity
  8
0
  6
Continuous
 62
     7
370
    25
100
AcDbCircle
 10
595.519095315
 20
80.4214889709
 30
0.0
 40
2.212152995661576
100
AcDbArc
 50
167.6263336947
 51
252.3682897726
  0
ARC
  5
3FC
330
1F
100
AcDbEntity
  8
0
  6
Continuous
 62
     7
370
    25
100
AcDbCircle
 10
592.3371147997
 20
85.9328408759
 30
0.0
 40
2.212152995662092
100
AcDbArc
 50
167.6263336947
 51
252.3682897726
  0
ARC
  5
3FD
330
1F
100
AcDbEntity
  8
0
  6
Continuous
 62
     7
370
    25
100
AcDbCircle
 10
589.1551342843
 20
91.444192781
 30
0.0
 40
2.21215299566244
100
AcDbArc
 50
167.6263336948
 51
252.3682897725
  0
ARC
  5
3FE
330
1F
100
AcDbEntity
  8
0
  6
Continuous
 62
     7
370
    25
100
AcDbCircle
 10
592.3371147997
 20
82.2584072225
 30
0.0
 40
2.212152995662208
100
AcDbArc
 50
167.6263336947
 51
252.3682897726
  0
ARC
  5
3FF
330
1F
100
AcDbEntity
  8
0
  6
Continuous
 62
     7
370
    25
100
AcDbCircle
 10
589.1551342843
 20
87.7697591275
 30
0.0
 40
2.212152995663265
100
AcDbArc
 50
167.6263336948
 51
252.3682897725
  0
ARC
  5
400
330
1F
100
AcDbEntity
  8
0
  6
Continuous
 62
     7
370
    25
100
AcDbCircle
 10
585.973153769
 20
93.2811110326
 30
0.0
 40
2.212152995662601
100
AcDbArc
 50
167.6263336948
 51
252.3682897725
  0
ARC
  5
401
330
1F
100
AcDbEntity
  8
0
  6
Continuous
 62
     7
370
    25
100
AcDbCircle
 10
589.1551342843
 20
84.0953254741
 30
0.0
 40
2.212152995663498
100
AcDbArc
 50
167.6263336948
 51
252.3682897725
  0
ARC
  5
402
330
1F
100
AcDbEntity
  8
0
  6
Continuous
 62
     7
370
    25
100
AcDbCircle
 10
585.973153769
 20
89.6066773791
 30
0.0
 40
2.212152995662469
100
AcDbArc
 50
167.6263336948
 51
252.3682897726
  0
ARC
  5
403
330
1F
100
AcDbEntity
  8
0
  6
Continuous
 62
     7
370
    25
100
AcDbCircle
 10
582.7911732536
 20
95.1180292842
 30
0.0
 40
2.212152995661303
100
AcDbArc
 50
167.6263336947
 51
252.3682897726
  0
ARC
  5
404
330
1F
100
AcDbEntity
  8
0
  6
Continuous
 62
     7
370
    25
100
AcDbCircle
 10
585.973153769
 20
85.9322437257
 30
0.0
 40
2.21215299566333
100
AcDbArc
 50
167.6263336948
 51
252.3682897725
  0
ARC
  5
405
330
1F
100
AcDbEntity
  8
0
  6
Continuous
 62
     7
370
    25
100
AcDbCircle
 10
582.7911732536
 20
91.4435956307
 30
0.0
 40
2.212152995663489
100
AcDbArc
 50
167.6263336948
 51
252.3682897725
  0
ARC
  5
406
330
1F
100
AcDbEntity
  8
0
  6
Continuous
 62
     7
370
    25
100
AcDbCircle
 10
579.6091927383
 20
96.9549475358
 30
0.0
 40
2.212152995662649
100
AcDbArc
 50
167.6263336948
 51
252.3682897725
  0
ARC
  5
407
330
1F
100
AcDbEntity
  8
0
  6
Continuous
 62
     7
370
    25
100
AcDbCircle
 10
582.7911732536
 20
87.7691619773
 30
0.0
 40
2.212152995663289
100
AcDbArc
 50
167.6263336948
 51
252.3682897725
  0
ARC
  5
408
330
1F
100
AcDbEntity
  8
0
  6
Continuous
 62
     7
370
    25
100
AcDbCircle
 10
579.6091927383
 20
93.2805138823
 30
0.0
 40
2.212152995663235
100
AcDbArc
 50
167.6263336948
 51
252.3682897725
  0
ARC
  5
409
330
1F
100
AcDbEntity
  8
0
  6
Continuous
 62
     7
370
    25
100
AcDbCircle
 10
576.427212223
 20
98.7918657874
 30
0.0
 40
2.212152995662905
100
AcDbArc
 50
167.6263336948
 51
252.3682897725
  0
LINE
  5
40A
330
1F
100
AcDbEntity
  8
0
  6
Continuous
 62
     7
370
    25
100
AcDbLine
 10
677.4715738346
 20
111.3655335438
 30
0.0
 11
677.4715738346
 21
95.6871251459
 31
0.0
  0
LINE
  5
40B
330
1F
100
AcDbEntity
  8
0
  6
Continuous
 62
     7
370
    25
100
AcDbLine
 10
687.229647415
 20
90.0539091743
 30
0.0
 11
677.4715738346
 21
95.6871251459
 31
0.0
  0
LINE
  5
40C
330
1F
100
AcDbEntity
  8
0
  6
Continuous
 62
     7
370
    25
100
AcDbLine
 10
687.229647415
 20
90.0539091743
 30
0.0
 11
687.229647415
 21
89.0740602001
 31
0.0
  0
LINE
  5
40D
330
1F
100
AcDbEntity
  8
0
  6
Continuous
 62
     7
370
    25
100
AcDbLine
 10
687.229647415
 20
89.0740602001
 30
0.0
 11
676.6230456972
 21
95.1971210387
 31
0.0
  0
ARC
  5
40E
330
1F
100
AcDbEntity
  8
0
  6
Continuous
 62
     7
370
    25
100
AcDbCircle
 10
579.6091927383
 20
89.6060802289
 30
0.0
 40
2.212152995662207
100
AcDbArc
 50
167.6263336947
 51
252.3682897726
  0
ARC
  5
40F
330
1F
100
AcDbEntity
  8
0
  6
Continuous
 62
     7
370
    25
100
AcDbCircle
 10
576.427212223
 20
95.1174321339
 30
0.0
 40
2.212152995662428
100
AcDbArc
 50
167.6263336947
 51
252.3682897726
  0
ARC
  5
410
330
1F
100
AcDbEntity
  8
0
  6
Continuous
 62
     7
370
    25
100
AcDbCircle
 10
573.2452317076
 20
100.628784039
 30
0.0
 40
2.212152995663095
100
AcDbArc
 50
167.6263336948
 51
252.3682897725
  0
LWPOLYLINE
  5
411
330
1F
100
AcDbEntity
  8
0
  6
Continuous
 62
     7
370
    25
100
AcDbPolyline
 90
       23
 70
   128
 43
0.0
 10
705.7558450821
 20
130.1833204468
 10
705.3076113289
 20
129.8501404185
 10
704.8956908086
 20
129.3951122736
 10
704.553454872
 20
128.8550996863
 10
704.3086294394
 20
128.2738512648
 10
704.1810488112
 20
127.6984562994
 10
704.1810488112
 20
127.1755298683
 10
704.3086294394
 20
126.7474363608
 10
704.553454872
 20
126.4488573671
 10
704.8956908086
 20
126.3039819814
 10
705.3076113289
 20
126.3245471459
 10
705.7558450821
 20
126.5088867933
 10
706.2040788353
 20
126.8420668217
 10
706.6159993555
 20
127.2970949666
 10
706.9582352921
 20
127.8371075539
 10
707.2030607247
 20
128.4183559753
 10
707.3306413529
 20
128.9937509407
 10
707.3306413529
 20
129.5166773718
 10
707.2030607247
 20
129.9447708793
 10
706.9582352921
 20
130.243349873
 10
706.6159993555
 20
130.3882252587
 10
706.2040788353
 20
130.3676600942
 10
705.7558450821
 20
130.1833204468
  0
LWPOLYLINE
  5
412
330
1F
100
AcDbEntity
  8
0
  6
Continuous
 62
     7
370
    25
100
AcDbPolyline
 90
       23
 70
   128
 43
0.0
 10
684.5426416465
 20
117.9371987695
 10
684.0944078933
 20
117.6040187411
 10
683.682487373
 20
117.1489905962
 10
683.3402514364
 20
116.6089780089
 10
683.0954260038
 20
116.0277295874
 10
682.9678453756
 20
115.4523346221
 10
682.9678453756
 20
114.9294081909
 10
683.0954260038
 20
114.5013146835
 10
683.3402514364
 20
114.2027356898
 10
683.682487373
 20
114.0578603041
 10
684.0944078933
 20
114.0784254686
 10
684.5426416465
 20
114.262765116
 10
684.9908753997
 20
114.5959451443
 10
685.4027959199
 20
115.0509732892
 10
685.7450318565
 20
115.5909858765
 10
685.9898572891
 20
116.172234298
 10
686.1174379173
 20
116.7476292634
 10
686.1174379173
 20
117.2705556945
 10
685.9898572891
 20
117.6986492019
 10
685.7450318565
 20
117.9972281957
 10
685.4027959199
 20
118.1421035814
 10
684.9908753997
 20
118.1215384169
 10
684.5426416465
 20
117.9371987695
  0
ARC
  5
413
330
1F
100
AcDbEntity
  8
0
  6
Continuous
 62
     7
370
    25
100
AcDbCircle
 10
681.4022868159
 20
111.2863258774
 30
0.0
 40
3.93151095583397
100
AcDbArc
 50
157.4636696726
 51
178.8455908914
  0
ARC
  5
414
330
1F
100
AcDbEntity
  8
0
  6
Continuous
 62
     7
370
    25
100
AcDbCircle
 10
718.301099658
 20
96.6099832863
 30
0.0
 40
43.64154022035511
100
AcDbArc
 50
141.7662167683
 51
158.2337830861
  0
ARC
  5
415
330
1F
100
AcDbEntity
  8
0
  6
Continuous
 62
     7
370
    25
100
AcDbCircle
 10
687.1410974649
 20
121.2275249832
 30
0.0
 40
3.930860391269594
100
AcDbArc
 50
121.1521759568
 51
142.5364754598
  0
LINE
  5
416
330
1F
100
AcDbEntity
  8
0
  6
Continuous
 62
     7
370
    25
100
AcDbLine
 10
705.1908739246
 20
136.185360832
 30
0.0
 11
685.1076128039
 21
124.5915409685
 31
0.0
  0
ARC
  5
417
330
1F
100
AcDbEntity
  8
0
  6
Continuous
 62
     7
370
    25
100
AcDbCircle
 10
706.1682060771
 20
134.6508295328
 30
0.0
 40
1.819330768320448
100
AcDbArc
 50
86.5568011232
 51
122.4927727563
  0
ARC
  5
418
330
1F
100
AcDbEntity
  8
0
  6
Continuous
 62
     7
370
    25
100
AcDbCircle
 10
705.3889531839
 20
127.7121342533
 30
0.0
 40
8.799714352568438
100
AcDbArc
 50
35.7843628334
 51
84.2048854118
  0
ARC
  5
419
330
1F
100
AcDbEntity
  8
0
  6
Continuous
 62
     7
370
    25
100
AcDbCircle
 10
711.0088145638
 20
131.854955679
 30
0.0
 40
1.819823409551747
100
AcDbArc
 50
357.5050499163
 51
33.434446989
  0
LINE
  5
41A
330
1F
100
AcDbEntity
  8
0
  6
Continuous
 62
     7
370
    25
100
AcDbLine
 10
712.8269128939
 20
116.0973279415
 30
0.0
 11
712.8269128939
 21
131.7757363394
 31
0.0
  0
LINE
  5
41B
330
1F
100
AcDbEntity
  8
0
  6
Continuous
 62
     7
370
    25
100
AcDbLine
 10
712.8269128939
 20
116.0973279415
 30
0.0
 11
677.4715738346
 21
95.6871251459
 31
0.0
  0
ARC
  5
41C
330
1F
100
AcDbEntity
  8
0
  6
Continuous
 62
     7
370
    25
100
AcDbCircle
 10
576.427212223
 20
91.4429984805
 30
0.0
 40
2.21215299566266
100
AcDbArc
 50
167.6263336948
 51
252.3682897725
  0
ARC
  5
41D
330
1F
100
AcDbEntity
  8
0
  6
Continuous
 62
     7
370
    25
100
AcDbCircle
 10
573.2452317076
 20
96.9543503855
 30
0.0
 40
2.212152995662113
100
AcDbArc
 50
167.6263336947
 51
252.3682897726
  0
ARC
  5
41E
330
1F
100
AcDbEntity
  8
0
  6
Continuous
 62
     7
370
    25
100
AcDbCircle
 10
570.0632511923
 20
102.4657022906
 30
0.0
 40
2.212152995665058
100
AcDbArc
 50
167.6263336949
 51
252.3682897724
  0
ARC
  5
41F
330
1F
100
AcDbEntity
  8
0
  6
Continuous
 62
     7
370
    25
100
AcDbCircle
 10
573.2452317076
 20
93.2799167321
 30
0.0
 40
2.212152995661251
100
AcDbArc
 50
167.6263336947
 51
252.3682897726
  0
ARC
  5
420
330
1F
100
AcDbEntity
  8
0
  6
Continuous
 62
     7
370
    25
100
AcDbCircle
 10
570.0632511923
 20
98.7912686371
 30
0.0
 40
2.212152995661385
100
AcDbArc
 50
167.6263336947
 51
252.3682897726
  0
ARC
  5
421
330
1F
100
AcDbEntity
  8
0
  6
Continuous
 62
     7
370
    25
100
AcDbCircle
 10
566.8812706769
 20
104.3026205422
 30
0.0
 40
2.212152995663967
100
AcDbArc
 50
167.6263336948
 51
252.3682897725
  0
ARC
  5
422
330
1F
100
AcDbEntity
  8
0
  6
Continuous
 62
     7
370
    25
100
AcDbCircle
 10
570.0632511923
 20
95.1168349837
 30
0.0
 40
2.212152995661695
100
AcDbArc
 50
167.6263336947
 51
252.3682897726
  0
ARC
  5
423
330
1F
100
AcDbEntity
  8
0
  6
Continuous
 62
     7
370
    25
100
AcDbCircle
 10
566.8812706769
 20
100.6281868887
 30
0.0
 40
2.21215299566185
100
AcDbArc
 50
167.6263336947
 51
252.3682897726
  0
ARC
  5
424
330
1F
100
AcDbEntity
  8
0
  6
Continuous
 62
     7
370
    25
100
AcDbCircle
 10
563.6992901616
 20
106.1395387938
 30
0.0
 40
2.212152995662689
100
AcDbArc
 50
167.6263336948
 51
252.3682897725
  0
ARC
  5
425
330
1F
100
AcDbEntity
  8
0
  6
Continuous
 62
     7
370
    25
100
AcDbCircle
 10
682.3305832789
 20
117.3769760567
 30
0.0
 40
2.93325713328483
100
AcDbArc
 50
284.7321987004
 51
15.2731778323
  0
ARC
  5
426
330
1F
100
AcDbEntity
  8
0
  6
Continuous
 62
     7
370
    25
100
AcDbCircle
 10
566.8812706769
 20
96.9537532353
 30
0.0
 40
2.212152995661334
100
AcDbArc
 50
167.6263336947
 51
252.3682897726
  0
ARC
  5
427
330
1F
100
AcDbEntity
  8
0
  6
Continuous
 62
     7
370
    25
100
AcDbCircle
 10
563.6992901616
 20
102.4651051403
 30
0.0
 40
2.212152995663793
100
AcDbArc
 50
167.6263336948
 51
252.3682897725
  0
ARC
  5
428
330
1F
100
AcDbEntity
  8
0
  6
Continuous
 62
     7
370
    25
100
AcDbCircle
 10
560.5173096463
 20
107.9764570454
 30
0.0
 40
2.212152995661792
100
AcDbArc
 50
167.6263336947
 51
252.3682897726
  0
LINE
  5
429
330
1F
100
AcDbEntity
  8
0
  6
Continuous
 62
     7
370
    25
100
AcDbLine
 10
722.5849864743
 20
110.4641119699
 30
0.0
 11
687.229647415
 21
90.0539091743
 31
0.0
  0
LINE
  5
42A
330
1F
100
AcDbEntity
  8
0
  6
Continuous
 62
     7
370
    25
100
AcDbLine
 10
712.8269128939
 20
116.0973279415
 30
0.0
 11
722.5849864743
 21
110.4641119699
 31
0.0
  0
LINE
  5
42B
330
1F
100
AcDbEntity
  8
0
  6
Continuous
 62
     7
370
    25
100
AcDbLine
 10
698.9990499772
 20
100.7261791832
 30
0.0
 11
696.0684821798
 21
99.0343984044
 31
0.0
  0
LWPOLYLINE
  5
42C
330
1F
100
AcDbEntity
  8
0
  6
Continuous
 62
     7
370
    25
100
AcDbPolyline
 90
       10
 70
   128
 43
0.0
 10
704.0980694908
 20
103.6697804921
 10
704.2075571892
 20
103.1223386158
 10
704.1026313321
 20
102.5745990998
 10
703.7885854704
 20
102.0541956184
 10
703.2812633416
 20
101.5873827326
 10
702.606259547
 20
101.1977113364
 10
701.7976282942
 20
100.9048405053
 10
700.8961653487
 20
100.7235456883
 10
699.9473498714
 20
100.6629732803
 10
698.9990499772
 20
100.7261791832
  0
LINE
  5
42D
330
1F
100
AcDbEntity
  8
0
  6
Continuous
 62
     7
370
    25
100
AcDbLine
 10
707.0286372882
 20
105.361561271
 30
0.0
 11
704.0980694908
 21
103.6697804921
 31
0.0
  0
LWPOLYLINE
  5
42E
330
1F
100
AcDbEntity
  8
0
  6
Continuous
 62
     7
370
    25
100
AcDbPolyline
 90
       12
 70
   128
 43
0.0
 10
703.8466567729
 20
107.1984795226
 10
704.3593368104
 20
107.4200353124
 10
704.959375129
 20
107.5492338737
 10
705.5981601927
 20
107.5756083074
 10
706.2239414346
 20
107.4970219137
 10
706.7860217802
 20
107.3198412949
 10
707.2388648226
 20
107.058420571
 10
707.5457839118
 20
106.7339384944
 10
707.6819142884
 20
106.372682673
 10
707.636227479
 20
106.003919905
 10
707.4124247571
 20
105.6575251569
 10
707.0286372882
 20
105.361561271
  0
LINE
  5
42F
330
1F
100
AcDbEntity
  8
0
  6
Continuous
 62
     7
370
    25
100
AcDbLine
 10
700.9160889755
 20
105.5066987437
 30
0.0
 11
703.8466567729
 21
107.1984795226
 31
0.0
  0
LWPOLYLINE
  5
430
330
1F
100
AcDbEntity
  8
0
  6
Continuous
 62
     7
370
    25
100
AcDbPolyline
 90
       10
 70
   128
 43
0.0
 10
695.8170694619
 20
102.5630974348
 10
695.7075817634
 20
103.1105393111
 10
695.8125076205
 20
103.6582788272
 10
696.1265534823
 20
104.1786823085
 10
696.6338756111
 20
104.6454951944
 10
697.3088794057
 20
105.0351665906
 10
698.1175106585
 20
105.3280374217
 10
699.018973604
 20
105.5093322387
 10
699.9677890813
 20
105.5699046466
 10
700.9160889755
 20
105.5066987437
  0
LINE
  5
431
330
1F
100
AcDbEntity
  8
0
  6
Continuous
 62
     7
370
    25
100
AcDbLine
 10
692.8865016645
 20
100.871316656
 30
0.0
 11
695.8170694619
 21
102.5630974348
 31
0.0
  0
LWPOLYLINE
  5
432
330
1F
100
AcDbEntity
  8
0
  6
Continuous
 62
     7
370
    25
100
AcDbPolyline
 90
       12
 70
   128
 43
0.0
 10
696.0684821798
 20
99.0343984044
 10
695.5558021423
 20
98.8128426145
 10
694.9557638236
 20
98.6836440533
 10
694.3169787599
 20
98.6572696196
 10
693.691197518
 20
98.7358560132
 10
693.1291171725
 20
98.913036632
 10
692.6762741301
 20
99.1744573559
 10
692.3693550409
 20
99.4989394326
 10
692.2332246643
 20
99.860195254
 10
692.2789114737
 20
100.2289580219
 10
692.5027141956
 20
100.5753527701
 10
692.8865016645
 20
100.871316656
  0
LWPOLYLINE
  5
433
330
1F
100
AcDbEntity
  8
0
  6
Continuous
 62
     7
370
    25
100
AcDbPolyline
 90
       25
 70
   128
 43
0.0
 10
714.630035186
 20
109.3415508161
 10
714.0604915377
 20
109.089260954
 10
713.3972439117
 20
108.9306649165
 10
712.6854915377
 20
108.8765707616
 10
711.9737391637
 20
108.9306649165
 10
711.3104915377
 20
109.089260954
 10
710.7409478894
 20
109.3415508161
 10
710.3039216773
 20
109.6703413658
 10
710.0291955154
 20
110.0532260703
 10
709.9354915377
 20
110.4641119699
 10
710.0291955154
 20
110.8749978695
 10
710.3039216773
 20
111.257882574
 10
710.7409478894
 20
111.5866731236
 10
711.3104915377
 20
111.8389629858
 10
711.9737391637
 20
111.9975590232
 10
712.6854915377
 20
112.0516531781
 10
713.3972439117
 20
111.9975590232
 10
714.0604915377
 20
111.8389629858
 10
714.630035186
 20
111.5866731236
 10
715.0670613981
 20
111.257882574
 10
715.34178756
 20
110.8749978695
 10
715.4354915377
 20
110.4641119699
 10
715.34178756
 20
110.0532260703
 10
715.0670613981
 20
109.6703413658
 10
714.630035186
 20
109.3415508161
  0
LWPOLYLINE
  5
434
330
1F
100
AcDbEntity
  8
0
  6
Continuous
 62
     7
370
    25
100
AcDbPolyline
 90
       25
 70
   128
 43
0.0
 10
689.1741910632
 20
94.6462048033
 10
688.604647415
 20
94.3939149412
 10
687.941399789
 20
94.2353189037
 10
687.229647415
 20
94.1812247488
 10
686.5178950409
 20
94.2353189037
 10
685.854647415
 20
94.3939149412
 10
685.2851037667
 20
94.6462048033
 10
684.8480775546
 20
94.974995353
 10
684.5733513927
 20
95.3578800575
 10
684.479647415
 20
95.7687659571
 10
684.5733513927
 20
96.1796518566
 10
684.8480775546
 20
96.5625365612
 10
685.2851037667
 20
96.8913271108
 10
685.854647415
 20
97.143616973
 10
686.5178950409
 20
97.3022130104
 10
687.229647415
 20
97.3563071653
 10
687.941399789
 20
97.3022130104
 10
688.604647415
 20
97.143616973
 10
689.1741910632
 20
96.8913271108
 10
689.6112172754
 20
96.5625365612
 10
689.8859434373
 20
96.1796518566
 10
689.979647415
 20
95.7687659571
 10
689.8859434373
 20
95.3578800575
 10
689.6112172754
 20
94.974995353
 10
689.1741910632
 20
94.6462048033
  0
LINE
  5
435
330
1F
100
AcDbEntity
  8
0
  6
Continuous
 62
     7
370
    25
100
AcDbLine
 10
722.5849864743
 20
110.4641119699
 30
0.0
 11
722.5849864743
 21
109.4842629956
 31
0.0
  0
LINE
  5
436
330
1F
100
AcDbEntity
  8
0
  6
Continuous
 62
     7
370
    25
100
AcDbLine
 10
722.5849864743
 20
109.4842629956
 30
0.0
 11
687.229647415
 21
89.0740602001
 31
0.0
  0
LWPOLYLINE
  5
437
330
1F
100
AcDbEntity
  8
0
  6
Continuous
 62
     7
370
    25
100
AcDbPolyline
 90
        3
 70
   128
 43
0.0
 10
683.694113509
 20
115.160880389
 10
683.2923184151
 20
115.0063532771
 10
682.9584199015
 20
115.0161423099
  0
LWPOLYLINE
  5
438
330
1F
100
AcDbEntity
  8
0
  6
Continuous
 62
     7
370
    25
100
AcDbPolyline
 90
        8
 70
   128
 43
0.0
 10
684.6889838324
 20
118.0138917764
 10
684.8273251853
 20
117.818017225
 10
684.9273239018
 20
117.4197454761
 10
684.8936851371
 20
116.9315391622
 10
684.7300541731
 20
116.4063030127
 10
684.454162964
 20
115.9009545143
 10
684.095908603
 20
115.470256018
 10
683.694113509
 20
115.160880389
  0
ARC
  5
439
330
1F
100
AcDbEntity
  8
0
  6
Continuous
 62
     7
370
    25
100
AcDbCircle
 10
563.6992901616
 20
98.7906714869
 30
0.0
 40
2.212152995663721
100
AcDbArc
 50
167.6263336948
 51
252.3682897725
  0
ARC
  5
43A
330
1F
100
AcDbEntity
  8
0
  6
Continuous
 62
     7
370
    25
100
AcDbCircle
 10
560.5173096463
 20
104.3020233919
 30
0.0
 40
2.212152995662668
100
AcDbArc
 50
167.6263336948
 51
252.3682897725
  0
ARC
  5
43B
330
1F
100
AcDbEntity
  8
0
  6
Continuous
 62
     7
370
    25
100
AcDbCircle
 10
557.3353291309
 20
109.813375297
 30
0.0
 40
2.21215299566473
100
AcDbArc
 50
167.6263336949
 51
252.3682897724
  0
ARC
  5
43C
330
1F
100
AcDbEntity
  8
0
  6
Continuous
 62
     7
370
    25
100
AcDbCircle
 10
687.229647415
 20
93.0208633669
 30
0.0
 40
3.455536287619046
100
AcDbArc
 50
40.8013031596
 51
139.1986968404
  0
ARC
  5
43D
330
1F
100
AcDbEntity
  8
0
  6
Continuous
 62
     7
370
    25
100
AcDbCircle
 10
560.5173096463
 20
100.6275897385
 30
0.0
 40
2.212152995662584
100
AcDbArc
 50
167.6263336948
 51
252.3682897725
  0
ARC
  5
43E
330
1F
100
AcDbEntity
  8
0
  6
Continuous
 62
     7
370
    25
100
AcDbCircle
 10
557.3353291309
 20
106.1389416435
 30
0.0
 40
2.21215299566129
100
AcDbArc
 50
167.6263336947
 51
252.3682897726
  0
ARC
  5
43F
330
1F
100
AcDbEntity
  8
0
  6
Continuous
 62
     7
370
    25
100
AcDbCircle
 10
554.1533486156
 20
111.6502935486
 30
0.0
 40
2.212152995663132
100
AcDbArc
 50
167.6263336948
 51
252.3682897725
  0
ARC
  5
440
330
1F
100
AcDbEntity
  8
0
  6
Continuous
 62
     7
370
    25
100
AcDbCircle
 10
557.3353291309
 20
102.4645079901
 30
0.0
 40
2.21215299566205
100
AcDbArc
 50
167.6263336947
 51
252.3682897726
  0
ARC
  5
441
330
1F
100
AcDbEntity
  8
0
  6
Continuous
 62
     7
370
    25
100
AcDbCircle
 10
554.1533486156
 20
107.9758598952
 30
0.0
 40
2.21215299566409
100
AcDbArc
 50
167.6263336948
 51
252.3682897725
  0
ARC
  5
442
330
1F
100
AcDbEntity
  8
0
  6
Continuous
 62
     7
370
    25
100
AcDbCircle
 10
550.9713681002
 20
113.4872118002
 30
0.0
 40
2.21215299566231
100
AcDbArc
 50
167.6263336947
 51
252.3682897726
  0
ARC
  5
443
330
1F
100
AcDbEntity
  8
0
  6
Continuous
 62
     7
370
    25
100
AcDbCircle
 10
554.1533486156
 20
104.3014262417
 30
0.0
 40
2.212152995662589
100
AcDbArc
 50
167.6263336948
 51
252.3682897725
  0
ARC
  5
444
330
1F
100
AcDbEntity
  8
0
  6
Continuous
 62
     7
370
    25
100
AcDbCircle
 10
550.9713681002
 20
109.8127781468
 30
0.0
 40
2.212152995663997
100
AcDbArc
 50
167.6263336948
 51
252.3682897725
  0
ARC
  5
445
330
1F
100
AcDbEntity
  8
0
  6
Continuous
 62
     7
370
    25
100
AcDbCircle
 10
547.7893875849
 20
115.3241300518
 30
0.0
 40
2.212152995664658
100
AcDbArc
 50
167.6263336949
 51
252.3682897724
  0
LWPOLYLINE
  5
446
330
1F
100
AcDbEntity
  8
0
  6
Continuous
 62
     7
370
    25
100
AcDbPolyline
 90
        3
 70
   128
 43
0.0
 10
692.393681489
 20
99.462933043
 10
692.5027141956
 20
99.5955037958
 10
692.8865016645
 20
99.8914676817
  0
ARC
  5
447
330
1F
100
AcDbEntity
  8
0
  6
Continuous
 62
     7
370
    25
100
AcDbCircle
 10
550.9713681002
 20
106.1383444933
 30
0.0
 40
2.212152995662283
100
AcDbArc
 50
167.6263336947
 51
252.3682897726
  0
ARC
  5
448
330
1F
100
AcDbEntity
  8
0
  6
Continuous
 62
     7
370
    25
100
AcDbCircle
 10
547.7893875849
 20
111.6496963984
 30
0.0
 40
2.212152995661549
100
AcDbArc
 50
167.6263336947
 51
252.3682897726
  0
LINE
  5
449
330
1F
100
AcDbEntity
  8
0
  6
Continuous
 62
     7
370
    25
100
AcDbLine
 10
704.0980694908
 20
103.6697804921
 30
0.0
 11
704.0980694908
 21
102.6899315179
 31
0.0
  0
LINE
  5
44A
330
1F
100
AcDbEntity
  8
0
  6
Continuous
 62
     7
370
    25
100
AcDbLine
 10
704.0980694908
 20
102.6899315179
 30
0.0
 11
704.1219741062
 21
102.6265144763
 31
0.0
  0
LINE
  5
44B
330
1F
100
AcDbEntity
  8
0
  6
Continuous
 62
     7
370
    25
100
AcDbLine
 10
695.8170694619
 20
102.5630974348
 30
0.0
 11
695.8170694619
 21
101.5832484606
 31
0.0
  0
LINE
  5
44C
330
1F
100
AcDbEntity
  8
0
  6
Continuous
 62
     7
370
    25
100
AcDbLine
 10
692.8865016645
 20
99.8914676817
 30
0.0
 11
695.8170694619
 21
101.5832484606
 31
0.0
  0
ARC
  5
44D
330
1F
100
AcDbEntity
  8
0
  6
Continuous
 62
     7
370
    25
100
AcDbCircle
 10
547.7893875849
 20
107.9752627449
 30
0.0
 40
2.212152995663132
100
AcDbArc
 50
167.6263336948
 51
252.3682897725
  0
ARC
  5
44E
330
1F
100
AcDbEntity
  8
0
  6
Continuous
 62
     7
370
    25
100
AcDbCircle
 10
703.5437867145
 20
129.6230977341
 30
0.0
 40
2.93325713328507
100
AcDbArc
 50
284.7321987004
 51
15.2731778323
  0
LWPOLYLINE
  5
44F
330
1F
100
AcDbEntity
  8
0
  6
Continuous
 62
     7
370
    25
100
AcDbPolyline
 90
        3
 70
   128
 43
0.0
 10
704.9073169446
 20
127.4070020664
 10
704.5055218507
 20
127.2524749544
 10
704.1716233371
 20
127.2622639873
  0
LWPOLYLINE
  5
450
330
1F
100
AcDbEntity
  8
0
  6
Continuous
 62
     7
370
    25
100
AcDbPolyline
 90
        8
 70
   128
 43
0.0
 10
705.902187268
 20
130.2600134537
 10
706.0405286209
 20
130.0641389024
 10
706.1405273374
 20
129.6658671535
 10
706.1068885727
 20
129.1776608396
 10
705.9432576087
 20
128.6524246901
 10
705.6673663995
 20
128.1470761916
 10
705.3091120386
 20
127.7163776954
 10
704.9073169446
 20
127.4070020664
  0
LINE
  5
451
330
1F
100
AcDbEntity
  8
0
  6
Continuous
 62
     7
370
    25
100
AcDbLine
 10
700.9160889755
 20
105.5066987437
 30
0.0
 11
700.9160889755
 21
104.5268497695
 31
0.0
  0
LWPOLYLINE
  5
452
330
1F
100
AcDbEntity
  8
0
  6
Continuous
 62
     7
370
    25
100
AcDbPolyline
 90
        9
 70
   128
 43
0.0
 10
695.7931648464
 20
102.6265144763
 10
695.8125076205
 20
102.6784298529
 10
696.1265534823
 20
103.1988333343
 10
696.6338756111
 20
103.6656462201
 10
697.3088794057
 20
104.0553176163
 10
698.1175106585
 20
104.3481884474
 10
699.018973604
 20
104.5294832644
 10
699.9677890813
 20
104.5900556724
 10
700.9160889755
 20
104.5268497695
  0
ARC
  5
453
330
1F
100
AcDbEntity
  8
0
  6
Continuous
 62
     7
370
    25
100
AcDbCircle
 10
705.407017108
 20
103.6286700429
 30
0.0
 40
3.023676536173696
100
AcDbArc
 50
45.6295714127
 51
121.0674886233
  0
LINE
  5
454
330
1F
100
AcDbEntity
  8
0
  6
Continuous
 62
     7
370
    25
100
AcDbLine
 10
700.9160889755
 20
104.5268497695
 30
0.0
 11
703.8466567729
 21
106.2186305483
 31
0.0
  0
ARC
  5
455
330
1F
100
AcDbEntity
  8
0
  6
Continuous
 62
     7
370
    25
100
AcDbCircle
 10
712.6854915377
 20
107.7162093798
 30
0.0
 40
3.455536287618886
100
AcDbArc
 50
40.8013031596
 51
139.1986968404
  0
ARC
  5
456
330
1F
100
AcDbEntity
  8
0
  6
Continuous
 62
     7
370
    25
100
AcDbCircle
 10
730.6516845261
 20
157.7762740472
 30
0.0
 40
2.560975410605768
100
AcDbArc
 50
283.0724651351
 51
16.9329113976
  0
ARC
  5
457
330
1F
100
AcDbEntity
  8
0
  6
Continuous
 62
     7
370
    25
100
AcDbCircle
 10
734.187218432
 20
159.8172943267
 30
0.0
 40
2.560975410605273
100
AcDbArc
 50
283.0724651351
 51
16.9329113976
  0
ARC
  5
458
330
1F
100
AcDbEntity
  8
0
  6
Continuous
 62
     7
370
    25
100
AcDbCircle
 10
734.187218432
 20
155.7345902673
 30
0.0
 40
2.56097541060529
100
AcDbArc
 50
283.0724651351
 51
16.9329113976
  0
ARC
  5
459
330
1F
100
AcDbEntity
  8
0
  6
Continuous
 62
     7
370
    25
100
AcDbCircle
 10
737.722752338
 20
161.8583146063
 30
0.0
 40
2.560975410605668
100
AcDbArc
 50
283.0724651351
 51
16.9329113976
  0
ARC
  5
45A
330
1F
100
AcDbEntity
  8
0
  6
Continuous
 62
     7
370
    25
100
AcDbCircle
 10
737.722752338
 20
157.7756105469
 30
0.0
 40
2.560975410605419
100
AcDbArc
 50
283.0724651351
 51
16.9329113976
  0
ARC
  5
45B
330
1F
100
AcDbEntity
  8
0
  6
Continuous
 62
     7
370
    25
100
AcDbCircle
 10
741.2582862439
 20
163.8993348858
 30
0.0
 40
2.560975410606426
100
AcDbArc
 50
283.0724651351
 51
16.9329113976
  0
ARC
  5
45C
330
1F
100
AcDbEntity
  8
0
  6
Continuous
 62
     7
370
    25
100
AcDbCircle
 10
737.722752338
 20
153.6929064874
 30
0.0
 40
2.560975410605316
100
AcDbArc
 50
283.0724651351
 51
16.9329113976
  0
ARC
  5
45D
330
1F
100
AcDbEntity
  8
0
  6
Continuous
 62
     7
370
    25
100
AcDbCircle
 10
741.2582862439
 20
159.8166308264
 30
0.0
 40
2.560975410605156
100
AcDbArc
 50
283.072465135
 51
16.9329113977
  0
ARC
  5
45E
330
1F
100
AcDbEntity
  8
0
  6
Continuous
 62
     7
370
    25
100
AcDbCircle
 10
744.7938201498
 20
165.9403551654
 30
0.0
 40
2.560975410605408
100
AcDbArc
 50
283.0724651351
 51
16.9329113976
  0
ARC
  5
45F
330
1F
100
AcDbEntity
  8
0
  6
Continuous
 62
     7
370
    25
100
AcDbCircle
 10
741.2582862439
 20
155.733926767
 30
0.0
 40
2.560975410605869
100
AcDbArc
 50
283.0724651351
 51
16.9329113976
  0
ARC
  5
460
330
1F
100
AcDbEntity
  8
0
  6
Continuous
 62
     7
370
    25
100
AcDbCircle
 10
744.7938201498
 20
161.857651106
 30
0.0
 40
2.560975410606325
100
AcDbArc
 50
283.0724651351
 51
16.9329113976
  0
ARC
  5
461
330
1F
100
AcDbEntity
  8
0
  6
Continuous
 62
     7
370
    25
100
AcDbCircle
 10
748.3293540558
 20
167.981375445
 30
0.0
 40
2.56097541060478
100
AcDbArc
 50
283.072465135
 51
16.9329113977
  0
ARC
  5
462
330
1F
100
AcDbEntity
  8
0
  6
Continuous
 62
     7
370
    25
100
AcDbCircle
 10
744.7938201498
 20
157.7749470465
 30
0.0
 40
2.560975410606321
100
AcDbArc
 50
283.0724651351
 51
16.9329113976
  0
ARC
  5
463
330
1F
100
AcDbEntity
  8
0
  6
Continuous
 62
     7
370
    25
100
AcDbCircle
 10
748.3293540558
 20
163.8986713855
 30
0.0
 40
2.560975410605868
100
AcDbArc
 50
283.0724651351
 51
16.9329113976
  0
ARC
  5
464
330
1F
100
AcDbEntity
  8
0
  6
Continuous
 62
     7
370
    25
100
AcDbCircle
 10
751.8648879617
 20
170.0223957245
 30
0.0
 40
2.560975410604138
100
AcDbArc
 50
283.072465135
 51
16.9329113977
  0
ARC
  5
465
330
1F
100
AcDbEntity
  8
0
  6
Continuous
 62
     7
370
    25
100
AcDbCircle
 10
748.3293540558
 20
159.8159673261
 30
0.0
 40
2.560975410605686
100
AcDbArc
 50
283.0724651351
 51
16.9329113976
  0
ARC
  5
466
330
1F
100
AcDbEntity
  8
0
  6
Continuous
 62
     7
370
    25
100
AcDbCircle
 10
751.8648879617
 20
165.9396916651
 30
0.0
 40
2.560975410607981
100
AcDbArc
 50
283.0724651352
 51
16.9329113975
  0
ARC
  5
467
330
1F
100
AcDbEntity
  8
0
  6
Continuous
 62
     7
370
    25
100
AcDbCircle
 10
755.4004218676
 20
172.0634160041
 30
0.0
 40
2.560975410605374
100
AcDbArc
 50
283.0724651351
 51
16.9329113976
  0
ARC
  5
468
330
1F
100
AcDbEntity
  8
0
  6
Continuous
 62
     7
370
    25
100
AcDbCircle
 10
751.8648879617
 20
161.8569876057
 30
0.0
 40
2.560975410607393
100
AcDbArc
 50
283.0724651351
 51
16.9329113975
  0
ARC
  5
469
330
1F
100
AcDbEntity
  8
0
  6
Continuous
 62
     7
370
    25
100
AcDbCircle
 10
755.4004218676
 20
167.9807119446
 30
0.0
 40
2.560975410605836
100
AcDbArc
 50
283.0724651351
 51
16.9329113976
  0
ARC
  5
46A
330
1F
100
AcDbEntity
  8
0
  6
Continuous
 62
     7
370
    25
100
AcDbCircle
 10
758.9359557736
 20
174.1044362836
 30
0.0
 40
2.560975410605129
100
AcDbArc
 50
283.072465135
 51
16.9329113977
  0
ARC
  5
46B
330
1F
100
AcDbEntity
  8
0
  6
Continuous
 62
     7
370
    25
100
AcDbCircle
 10
755.4004218676
 20
163.8980078852
 30
0.0
 40
2.560975410606379
100
AcDbArc
 50
283.0724651351
 51
16.9329113976
  0
ARC
  5
46C
330
1F
100
AcDbEntity
  8
0
  6
Continuous
 62
     7
370
    25
100
AcDbCircle
 10
758.9359557736
 20
170.0217322242
 30
0.0
 40
2.560975410605556
100
AcDbArc
 50
283.0724651351
 51
16.9329113976
  0
ARC
  5
46D
330
1F
100
AcDbEntity
  8
0
  6
Continuous
 62
     7
370
    25
100
AcDbCircle
 10
762.4714896795
 20
176.1454565632
 30
0.0
 40
2.560975410605607
100
AcDbArc
 50
283.0724651351
 51
16.9329113976
  0
ARC
  5
46E
330
1F
100
AcDbEntity
  8
0
  6
Continuous
 62
     7
370
    25
100
AcDbCircle
 10
758.9359557736
 20
165.9390281648
 30
0.0
 40
2.560975410608116
100
AcDbArc
 50
283.0724651352
 51
16.9329113975
  0
ARC
  5
46F
330
1F
100
AcDbEntity
  8
0
  6
Continuous
 62
     7
370
    25
100
AcDbCircle
 10
762.4714896795
 20
172.0627525038
 30
0.0
 40
2.560975410607183
100
AcDbArc
 50
283.0724651351
 51
16.9329113976
  0
ARC
  5
470
330
1F
100
AcDbEntity
  8
0
  6
Continuous
 62
     7
370
    25
100
AcDbCircle
 10
762.4714896795
 20
167.9800484443
 30
0.0
 40
2.5609754106059
100
AcDbArc
 50
283.0724651351
 51
16.9329113976
  0
ARC
  5
471
330
1F
100
AcDbEntity
  8
0
  6
PHANTOM
 62
     1
370
    18
100
AcDbCircle
 10
612.035750676
 20
81.4108573753
 30
0.0
 40
1.746836789714192
100
AcDbArc
 50
230.7967147643
 51
9.2140369905
  0
LINE
  5
472
330
1F
100
AcDbEntity
  8
0
  6
PHANTOM
 62
     1
370
    18
100
AcDbLine
 10
613.7600481457
 20
90.7513868795
 30
0.0
 11
613.7600481457
 21
81.6905661629
 31
0.0
  0
ARC
  5
473
330
1F
100
AcDbEntity
  8
0
  6
PHANTOM
 62
     1
370
    18
100
AcDbCircle
 10
607.6191837403
 20
90.4719434704
 30
0.0
 40
6.147219230288925
100
AcDbArc
 50
2.6054784857
 51
57.39452166
  0
LINE
  5
474
330
1F
100
AcDbEntity
  8
0
  6
PHANTOM
 62
     1
370
    18
100
AcDbLine
 10
547.9308162252
 20
132.0199568108
 30
0.0
 11
610.931621021
 21
95.6503663507
 31
0.0
  0
ARC
  5
475
330
1F
100
AcDbEntity
  8
0
  6
PHANTOM
 62
     1
370
    18
100
AcDbCircle
 10
546.8266865702
 20
130.6663185745
 30
0.0
 40
1.746836789713997
100
AcDbArc
 50
50.7967147643
 51
189.2140369905
  0
LINE
  5
476
330
1F
100
AcDbEntity
  8
0
  6
PHANTOM
 62
     1
370
    18
100
AcDbLine
 10
545.1023891004
 20
121.3257890703
 30
0.0
 11
545.1023891004
 21
130.3866097869
 31
0.0
  0
ARC
  5
477
330
1F
100
AcDbEntity
  8
0
  6
PHANTOM
 62
     1
370
    18
100
AcDbCircle
 10
551.2432535059
 20
121.6052324793
 30
0.0
 40
6.147219230288109
100
AcDbArc
 50
182.6054784857
 51
237.39452166
  0
LINE
  5
478
330
1F
100
AcDbEntity
  8
0
  6
PHANTOM
 62
     1
370
    18
100
AcDbLine
 10
610.931621021
 20
80.057219139
 30
0.0
 11
547.9308162252
 21
116.4268095991
 31
0.0
  0
ARC
  5
479
330
1F
100
AcDbEntity
  8
0
  6
PHANTOM
 62
     1
370
    18
100
AcDbCircle
 10
613.9451378977
 20
91.1932965773
 30
0.0
 40
0.479105831016187
100
AcDbArc
 50
183.9256126017
 51
247.2740822411
  0
ARC
  5
47A
330
1F
100
AcDbEntity
  8
0
  6
PHANTOM
 62
     1
370
    18
100
AcDbCircle
 10
611.4336170388
 20
95.6013379714
 30
0.0
 40
0.5043845594845323
100
AcDbArc
 50
174.4217922222
 51
233.8194854965
  0
ARC
  5
47B
330
1F
100
AcDbEntity
  8
0
  6
PHANTOM
 62
     1
370
    18
100
AcDbCircle
 10
613.9676119894
 20
82.1486765957
 30
0.0
 40
0.502939278493835
100
AcDbArc
 50
185.6947992512
 51
245.6253417064
  0
ARC
  5
47C
330
1F
100
AcDbEntity
  8
0
  6
PHANTOM
 62
     1
370
    18
100
AcDbCircle
 10
548.4208181276
 20
131.9658700735
 30
0.0
 40
0.4929779300817703
100
AcDbArc
 50
173.7011524871
 51
234.9866671196
  0
LWPOLYLINE
  5
47D
330
1F
100
AcDbEntity
  8
0
  6
PHANTOM
 62
     1
370
    18
100
AcDbPolyline
 90
       20
 70
   128
 43
0.0
 10
605.209137882
 20
90.1365881818
 10
605.2778871173
 20
89.6211474222
 10
605.476684777
 20
89.0821864893
 10
605.7839880499
 20
88.5781101628
 10
606.1664958582
 20
88.1635429344
 10
606.5827575454
 20
87.883409596
 10
606.987664699
 20
87.7680669414
 10
607.337339346
 20
87.830014137
 10
607.5938888126
 20
88.062538243
 10
607.7295119834
 20
88.4404416644
 10
607.7295119834
 20
88.9227727019
 10
607.5938888126
 20
89.4572633033
 10
607.337339346
 20
89.9859931185
 10
606.987664699
 20
90.451666068
 10
606.5827575454
 20
90.803819262
 10
606.1664958582
 20
91.0042914377
 10
605.7839880499
 20
91.0313583243
 10
605.476684777
 20
90.8820868045
 10
605.2778871173
 20
90.5726527638
 10
605.209137882
 20
90.1365881818
  0
ARC
  5
47E
330
1F
100
AcDbEntity
  8
0
  6
PHANTOM
 62
     1
370
    18
100
AcDbCircle
 10
612.4668371223
 20
79.9873582867
 30
0.0
 40
1.536804807572096
100
AcDbArc
 50
122.60547834
 51
177.3945215143
  0
ARC
  5
47F
330
1F
100
AcDbEntity
  8
0
  6
PHANTOM
 62
     1
370
    18
100
AcDbCircle
 10
612.517806292
 20
82.5094943594
 30
0.0
 40
1.509837659427008
100
AcDbArc
 50
234.3921912158
 51
294.195055421
  0
LINE
  5
480
330
1F
100
AcDbEntity
  8
0
  6
PHANTOM
 62
     1
370
    18
100
AcDbLine
 10
611.6387278022
 20
81.2819640068
 30
0.0
 11
611.9922811928
 21
81.4860660348
 31
0.0
  0
ARC
  5
481
330
1F
100
AcDbEntity
  8
0
  6
PHANTOM
 62
     1
370
    18
100
AcDbCircle
 10
549.4660323266
 20
116.3569487469
 30
0.0
 40
1.536804807571939
100
AcDbArc
 50
122.60547834
 51
177.3945215143
  0
LINE
  5
482
330
1F
100
AcDbEntity
  8
0
  6
PHANTOM
 62
     1
370
    18
100
AcDbLine
 10
548.6379230064
 20
117.6515544669
 30
0.0
 11
611.6387278022
 21
81.2819640068
 31
0.0
  0
LINE
  5
483
330
1F
100
AcDbEntity
  8
0
  6
PHANTOM
 62
     1
370
    18
100
AcDbLine
 10
548.991476397
 20
117.8556564949
 30
0.0
 11
548.6379230064
 21
117.6515544669
 31
0.0
  0
LINE
  5
484
330
1F
100
AcDbEntity
  8
0
  6
PHANTOM
 62
     1
370
    18
100
AcDbLine
 10
677.4715738346
 20
111.3655335438
 30
0.0
 11
676.6230456972
 21
111.8553784109
 31
0.0
  0
LINE
  5
485
330
1F
100
AcDbEntity
  8
0
  6
PHANTOM
 62
     1
370
    18
100
AcDbLine
 10
684.021013479
 20
123.6184953587
 30
0.0
 11
683.1724853416
 21
124.1083402258
 31
0.0
  0
LINE
  5
486
330
1F
100
AcDbEntity
  8
0
  6
PHANTOM
 62
     1
370
    18
100
AcDbLine
 10
677.7709990365
 20
112.793152828
 30
0.0
 11
676.9224708991
 21
113.2829976951
 31
0.0
  0
LINE
  5
487
330
1F
100
AcDbEntity
  8
0
  6
PHANTOM
 62
     1
370
    18
100
AcDbLine
 10
685.1076128039
 20
124.5915409685
 30
0.0
 11
684.2590846665
 21
125.0813858356
 31
0.0
  0
LINE
  5
488
330
1F
100
AcDbEntity
  8
0
  6
PHANTOM
 62
     1
370
    18
100
AcDbLine
 10
705.1908739246
 20
136.185360832
 30
0.0
 11
704.3423457872
 21
136.6752056991
 31
0.0
  0
ARC
  5
489
330
1F
100
AcDbEntity
  8
0
  6
PHANTOM
 62
     1
370
    18
100
AcDbCircle
 10
547.9857474018
 20
130.5490423292
 30
0.0
 40
1.478096950458233
100
AcDbArc
 50
124.9006710937
 51
186.30914886
  0
ARC
  5
48A
330
1F
100
AcDbEntity
  8
0
  6
PHANTOM
 62
     1
370
    18
100
AcDbCircle
 10
545.8094958816
 20
131.7513208718
 30
0.0
 40
1.537021907911925
100
AcDbArc
 50
242.6096722366
 51
297.3903277634
  0
LINE
  5
48B
330
1F
100
AcDbEntity
  8
0
  6
PHANTOM
 62
     1
370
    18
100
AcDbLine
 10
546.8701560534
 20
130.5907118148
 30
0.0
 11
546.5166026628
 21
130.3866097869
 31
0.0
  0
LINE
  5
48C
330
1F
100
AcDbEntity
  8
0
  6
PHANTOM
 62
     1
370
    18
100
AcDbLine
 10
546.5166026628
 20
130.3866097869
 30
0.0
 11
546.5166026628
 21
121.3257890703
 31
0.0
  0
ARC
  5
48D
330
1F
100
AcDbEntity
  8
0
  6
PHANTOM
 62
     1
370
    18
100
AcDbCircle
 10
545.8094958816
 20
122.6905001553
 30
0.0
 40
1.537021907911887
100
AcDbArc
 50
242.6096722366
 51
297.3903277634
  0
LINE
  5
48E
330
1F
100
AcDbEntity
  8
0
  6
PHANTOM
 62
     1
370
    18
100
AcDbLine
 10
546.5166026628
 20
121.3257890703
 30
0.0
 11
546.8701560534
 21
121.5298910983
 31
0.0
  0
ARC
  5
48F
330
1F
100
AcDbEntity
  8
0
  6
PHANTOM
 62
     1
370
    18
100
AcDbCircle
 10
551.1222509669
 20
121.5353716271
 30
0.0
 40
4.610414422715996
100
AcDbArc
 50
182.6054784857
 51
237.39452166
  0
LINE
  5
490
330
1F
100
AcDbEntity
  8
0
  6
PHANTOM
 62
     1
370
    18
100
AcDbLine
 10
692.8865016645
 20
100.871316656
 30
0.0
 11
692.8865016645
 21
99.8914676817
 31
0.0
  0
LINE
  5
491
330
1F
100
AcDbEntity
  8
0
  6
PHANTOM
 62
     1
370
    18
100
AcDbLine
 10
706.2774732495
 20
136.4668760987
 30
0.0
 11
705.4289451121
 21
136.9567209658
 31
0.0
  0
LINE
  5
492
330
1F
100
AcDbEntity
  8
0
  6
PHANTOM
 62
     1
370
    18
100
AcDbLine
 10
703.8466567729
 20
107.1984795226
 30
0.0
 11
703.8466567729
 21
106.2186305483
 31
0.0
  0
MTEXT
  5
493
330
1F
100
AcDbEntity
  8
SLD-0
100
AcDbMText
 10
701.3920965517
 20
78.6590322119
 30
0.0
 40
4.7625
 41
0.0
 71
     1
 72
     1
  1
SURFACE MOUNT
  7
SLDTEXTSTYLE0
 73
     1
 44
1.0
  0
CIRCLE
  5
494
330
1F
100
AcDbEntity
  8
0
  6
Continuous
 62
     7
370
    25
100
AcDbCircle
 10
238.6365339244
 20
118.4244224371
 30
0.0
 40
1.499999999999986
  0
CIRCLE
  5
495
330
1F
100
AcDbEntity
  8
0
  6
Continuous
 62
     7
370
    25
100
AcDbCircle
 10
238.6365339244
 20
208.4244224371
 30
0.0
 40
1.5
  0
CIRCLE
  5
496
330
1F
100
AcDbEntity
  8
0
  6
Continuous
 62
     7
370
    25
100
AcDbCircle
 10
156.6865339244
 20
100.9244224371
 30
0.0
 40
2.749999999999972
  0
CIRCLE
  5
497
330
1F
100
AcDbEntity
  8
0
  6
Continuous
 62
     7
370
    25
100
AcDbCircle
 10
120.6865339244
 20
100.9244224371
 30
0.0
 40
2.749999999999972
  0
ARC
  5
498
330
1F
100
AcDbEntity
  8
0
  6
Continuous
 62
     7
370
    25
100
AcDbCircle
 10
138.6865339244
 20
100.9244224371
 30
0.0
 40
4.250000000000012
100
AcDbArc
 50
31.9657187508
 51
148.0342812492
  0
LINE
  5
499
330
1F
100
AcDbEntity
  8
0
  6
Continuous
 62
     7
370
    25
100
AcDbLine
 10
135.0809826489
 20
103.1744224371
 30
0.0
 11
130.9365339244
 21
103.1744224371
 31
0.0
  0
ARC
  5
49A
330
1F
100
AcDbEntity
  8
0
  6
Continuous
 62
     7
370
    25
100
AcDbCircle
 10
130.9365339244
 20
100.9244224371
 30
0.0
 40
2.25
100
AcDbArc
 50
90.0
 51
270.0
  0
LINE
  5
49B
330
1F
100
AcDbEntity
  8
0
  6
Continuous
 62
     7
370
    25
100
AcDbLine
 10
130.9365339244
 20
98.6744224371
 30
0.0
 11
135.0809826489
 21
98.6744224371
 31
0.0
  0
ARC
  5
49C
330
1F
100
AcDbEntity
  8
0
  6
Continuous
 62
     7
370
    25
100
AcDbCircle
 10
138.6865339244
 20
100.9244224371
 30
0.0
 40
4.249999999999997
100
AcDbArc
 50
211.9657187508
 51
328.0342812492
  0
LINE
  5
49D
330
1F
100
AcDbEntity
  8
0
  6
Continuous
 62
     7
370
    25
100
AcDbLine
 10
142.2920851998
 20
98.6744224371
 30
0.0
 11
146.4365339244
 21
98.6744224371
 31
0.0
  0
ARC
  5
49E
330
1F
100
AcDbEntity
  8
0
  6
Continuous
 62
     7
370
    25
100
AcDbCircle
 10
146.4365339244
 20
100.9244224371
 30
0.0
 40
2.250000000000014
100
AcDbArc
 50
270.0
 51
90.0
  0
LINE
  5
49F
330
1F
100
AcDbEntity
  8
0
  6
Continuous
 62
     7
370
    25
100
AcDbLine
 10
146.4365339244
 20
103.1744224371
 30
0.0
 11
142.2920851998
 21
103.1744224371
 31
0.0
  0
CIRCLE
  5
4A0
330
1F
100
AcDbEntity
  8
0
  6
Continuous
 62
     7
370
    25
100
AcDbCircle
 10
156.6865339244
 20
225.9244224371
 30
0.0
 40
2.749999999999972
  0
CIRCLE
  5
4A1
330
1F
100
AcDbEntity
  8
0
  6
Continuous
 62
     7
370
    25
100
AcDbCircle
 10
120.6865339244
 20
225.9244224371
 30
0.0
 40
2.749999999999972
  0
LINE
  5
4A2
330
1F
100
AcDbEntity
  8
0
  6
Continuous
 62
     7
370
    25
100
AcDbLine
 10
142.2920851998
 20
228.1744224371
 30
0.0
 11
146.4365339244
 21
228.1744224371
 31
0.0
  0
ARC
  5
4A3
330
1F
100
AcDbEntity
  8
0
  6
Continuous
 62
     7
370
    25
100
AcDbCircle
 10
138.6865339244
 20
225.9244224371
 30
0.0
 40
4.24999999999999
100
AcDbArc
 50
31.9657187508
 51
148.0342812492
  0
LINE
  5
4A4
330
1F
100
AcDbEntity
  8
0
  6
Continuous
 62
     7
370
    25
100
AcDbLine
 10
130.9365339244
 20
228.1744224371
 30
0.0
 11
135.0809826489
 21
228.1744224371
 31
0.0
  0
ARC
  5
4A5
330
1F
100
AcDbEntity
  8
0
  6
Continuous
 62
     7
370
    25
100
AcDbCircle
 10
130.9365339244
 20
225.9244224371
 30
0.0
 40
2.250000000000028
100
AcDbArc
 50
90.0
 51
270.0
  0
LINE
  5
4A6
330
1F
100
AcDbEntity
  8
0
  6
Continuous
 62
     7
370
    25
100
AcDbLine
 10
135.0809826489
 20
223.6744224371
 30
0.0
 11
130.9365339244
 21
223.6744224371
 31
0.0
  0
ARC
  5
4A7
330
1F
100
AcDbEntity
  8
0
  6
Continuous
 62
     7
370
    25
100
AcDbCircle
 10
138.6865339244
 20
225.9244224371
 30
0.0
 40
4.250000000000005
100
AcDbArc
 50
211.9657187508
 51
328.0342812492
  0
LINE
  5
4A8
330
1F
100
AcDbEntity
  8
0
  6
Continuous
 62
     7
370
    25
100
AcDbLine
 10
146.4365339244
 20
223.6744224371
 30
0.0
 11
142.2920851998
 21
223.6744224371
 31
0.0
  0
ARC
  5
4A9
330
1F
100
AcDbEntity
  8
0
  6
Continuous
 62
     7
370
    25
100
AcDbCircle
 10
146.4365339244
 20
225.9244224371
 30
0.0
 40
2.25
100
AcDbArc
 50
270.0
 51
90.0
  0
LINE
  5
4AA
330
1F
100
AcDbEntity
  8
0
  6
Continuous
 62
     7
370
    25
100
AcDbLine
 10
113.6865339244
 20
232.9244224371
 30
0.0
 11
163.6865339244
 21
232.9244224371
 31
0.0
  0
LINE
  5
4AB
330
1F
100
AcDbEntity
  8
0
  6
Continuous
 62
     7
370
    25
100
AcDbLine
 10
163.6865339244
 20
232.9244224371
 30
0.0
 11
163.6865339244
 21
217.9244224371
 31
0.0
  0
LINE
  5
4AC
330
1F
100
AcDbEntity
  8
0
  6
Continuous
 62
     7
370
    25
100
AcDbLine
 10
246.6365339244
 20
217.9244224371
 30
0.0
 11
163.6865339244
 21
217.9244224371
 31
0.0
  0
LINE
  5
4AD
330
1F
100
AcDbEntity
  8
0
  6
Continuous
 62
     7
370
    25
100
AcDbLine
 10
246.6365339244
 20
217.9244224371
 30
0.0
 11
246.6365339244
 21
108.9244224371
 31
0.0
  0
LINE
  5
4AE
330
1F
100
AcDbEntity
  8
0
  6
Continuous
 62
     7
370
    25
100
AcDbLine
 10
246.6365339244
 20
108.9244224371
 30
0.0
 11
163.6865339244
 21
108.9244224371
 31
0.0
  0
LINE
  5
4AF
330
1F
100
AcDbEntity
  8
0
  6
Continuous
 62
     7
370
    25
100
AcDbLine
 10
163.6865339244
 20
93.9244224371
 30
0.0
 11
163.6865339244
 21
108.9244224371
 31
0.0
  0
LINE
  5
4B0
330
1F
100
AcDbEntity
  8
0
  6
Continuous
 62
     7
370
    25
100
AcDbLine
 10
113.6865339244
 20
93.9244224371
 30
0.0
 11
163.6865339244
 21
93.9244224371
 31
0.0
  0
LINE
  5
4B1
330
1F
100
AcDbEntity
  8
0
  6
Continuous
 62
     7
370
    25
100
AcDbLine
 10
113.6865339244
 20
108.9244224371
 30
0.0
 11
30.7365339244
 21
108.9244224371
 31
0.0
  0
LINE
  5
4B2
330
1F
100
AcDbEntity
  8
0
  6
Continuous
 62
     7
370
    25
100
AcDbLine
 10
30.7365339244
 20
170.1244224371
 30
0.0
 11
30.7365339244
 21
108.9244224371
 31
0.0
  0
LINE
  5
4B3
330
1F
100
AcDbEntity
  8
0
  6
Continuous
 62
     7
370
    25
100
AcDbLine
 10
32.7365339244
 20
170.1244224371
 30
0.0
 11
30.7365339244
 21
170.1244224371
 31
0.0
  0
LINE
  5
4B4
330
1F
100
AcDbEntity
  8
0
  6
Continuous
 62
     7
370
    25
100
AcDbLine
 10
32.7365339244
 20
170.1244224371
 30
0.0
 11
32.7365339244
 21
176.1244224371
 31
0.0
  0
LINE
  5
4B5
330
1F
100
AcDbEntity
  8
0
  6
Continuous
 62
     7
370
    25
100
AcDbLine
 10
32.7365339244
 20
176.1244224371
 30
0.0
 11
30.7365339244
 21
176.1244224371
 31
0.0
  0
LINE
  5
4B6
330
1F
100
AcDbEntity
  8
0
  6
Continuous
 62
     7
370
    25
100
AcDbLine
 10
30.7365339244
 20
217.9244224371
 30
0.0
 11
30.7365339244
 21
176.1244224371
 31
0.0
  0
LINE
  5
4B7
330
1F
100
AcDbEntity
  8
0
  6
Continuous
 62
     7
370
    25
100
AcDbLine
 10
113.6865339244
 20
217.9244224371
 30
0.0
 11
30.7365339244
 21
217.9244224371
 31
0.0
  0
LINE
  5
4B8
330
1F
100
AcDbEntity
  8
0
  6
Continuous
 62
     7
370
    25
100
AcDbLine
 10
113.6865339244
 20
232.9244224371
 30
0.0
 11
113.6865339244
 21
217.9244224371
 31
0.0
  0
LINE
  5
4B9
330
1F
100
AcDbEntity
  8
0
  6
Continuous
 62
     7
370
    25
100
AcDbLine
 10
113.6865339244
 20
93.9244224371
 30
0.0
 11
113.6865339244
 21
108.9244224371
 31
0.0
  0
LINE
  5
4BA
330
1F
100
AcDbEntity
  8
0
  6
Continuous
 62
     7
370
    25
100
AcDbLine
 10
30.7365339244
 20
176.1244224371
 30
0.0
 11
30.7365339244
 21
170.1244224371
 31
0.0
  0
DIMENSION
  5
4BB
330
1F
100
AcDbEntity
  8
SLD-0
100
AcDbDimension
  2
_D_6
 10
146.4365339244
 20
80.5986004005
 30
0.0
 11
138.0445607068
 21
80.5986004005
 31
0.0
 70
   160
  1
<>
 71
     2
 42
-1.0
  3
SLDDIMSTYLE0
100
AcDbAlignedDimension
 13
130.9365339244
 23
98.9244224371
 33
0.0
 14
146.4365339244
 24
98.9244224371
 34
0.0
100
AcDbRotatedDimension
  0
DIMENSION
  5
4C6
330
1F
100
AcDbEntity
  8
SLD-0
100
AcDbDimension
  2
_D_7
 10
156.6865339244
 20
69.0993343883
 30
0.0
 11
141.03436987
 21
69.0993343883
 31
0.0
 70
   160
  1
<>
 71
     2
 42
-1.0
  3
SLDDIMSTYLE1
100
AcDbAlignedDimension
 13
120.6865339244
 23
98.9244224371
 33
0.0
 14
156.6865339244
 24
98.9244224371
 34
0.0
100
AcDbRotatedDimension
  0
DIMENSION
  5
4D1
330
1F
100
AcDbEntity
  8
SLD-0
100
AcDbDimension
  2
_D_8
 10
163.6865339244
 20
57.6000683761
 30
0.0
 11
141.03436987
 21
57.6000683761
 31
0.0
 70
   160
  1
<>
 71
     2
 42
-1.0
  3
SLDDIMSTYLE1
100
AcDbAlignedDimension
 13
113.6865339244
 23
93.9244224371
 33
0.0
 14
163.6865339244
 24
93.9244224371
 34
0.0
 50
0.0
100
AcDbRotatedDimension
  0
DIMENSION
  5
4DC
330
1F
100
AcDbEntity
  8
SLD-0
100
AcDbDimension
  2
_D_9
 10
122.224594677
 20
223.6447581808
 30
0.0
 11
90.202559499
 21
243.9552401036
 31
0.0
 70
   163
  1
2X <>
 71
     1
 42
-1.0
  3
SLDDIMSTYLE4
100
AcDbDiametricDimension
 15
119.1484731718
 25
228.2040866934
 35
0.0
 40
0.0
  0
DIMENSION
  5
4E7
330
1F
100
AcDbEntity
  8
SLD-0
100
AcDbDimension
  2
_D_10
 10
132.1506462869
 20
224.0301069483
 30
0.0
 11
94.9238697109
 21
253.5312117159
 31
0.0
 70
   163
  1
2X <>
 71
     1
 42
-1.0
  3
SLDDIMSTYLE4
100
AcDbDiametricDimension
 15
129.7224215619
 25
227.8187379259
 35
0.0
 40
0.0
  0
DIMENSION
  5
4F1
330
1F
100
AcDbEntity
  8
SLD-0
100
AcDbDimension
  2
_D_11
 10
140.9326014696
 20
222.3164201391
 30
0.0
 11
100.7501157358
 21
264.7760762199
 31
0.0
 70
   163
  1
<>
 71
     1
 42
-1.0
  3
SLDDIMSTYLE5
100
AcDbDiametricDimension
 15
136.4404663791
 25
229.5324247351
 35
0.0
 40
0.0
  0
DIMENSION
  5
4FB
330
1F
100
AcDbEntity
  8
SLD-0
100
AcDbDimension
  2
_D_12
 10
138.6865339244
 20
252.9244224371
 30
0.0
 11
189.3558449755
 21
252.9244224371
 31
0.0
 70
   160
  1
<>
 71
     2
 42
-1.0
  3
SLDDIMSTYLE1
100
AcDbAlignedDimension
 13
246.6365339244
 23
217.9244224371
 33
0.0
 14
138.6865339244
 24
227.9244224371
 34
0.0
 50
0.0
100
AcDbRotatedDimension
  0
DIMENSION
  5
506
330
1F
100
AcDbEntity
  8
SLD-0
100
AcDbDimension
  2
_D_13
 10
266.6365339244
 20
225.9244224371
 30
0.0
 11
266.6365339244
 21
164.4302296338
 31
0.0
 70
   160
  1
<>
 71
     2
 42
-1.0
  3
SLDDIMSTYLE1
100
AcDbAlignedDimension
 13
158.6865339244
 23
100.9244224371
 33
0.0
 14
158.6865339244
 24
225.9244224371
 34
0.0
 50
90.0
100
AcDbRotatedDimension
  0
INSERT
  5
516
330
1F
100
AcDbEntity
  8
SLD-0
 62
     7
100
AcDbBlockReference
  2
SW_SYMBOL_MOD_CL
 10
134.4094130945
 20
257.3318039589
 30
0.0
 41
0.0030416748
 42
0.0030416748
 43
0.0030416748
  0
INSERT
  5
517
330
1F
100
AcDbEntity
  8
SLD-0
 62
     7
100
AcDbBlockReference
  2
SW_SYMBOL_MOD_CL
 10
18.3353443572
 20
161.1985399799
 30
0.0
 41
0.0030416748
 42
0.0030416748
 43
0.0030416748
  0
INSERT
  5
51F
330
1F
100
AcDbEntity
  8
SLD-0
100
AcDbBlockReference
  2
SW_CENTERMARKSYMBOL_2
 10
120.6865339244
 20
225.9244224371
 30
0.0
  0
INSERT
  5
527
330
1F
100
AcDbEntity
  8
SLD-0
100
AcDbBlockReference
  2
SW_CENTERMARKSYMBOL_3
 10
138.6865339244
 20
225.9244224371
 30
0.0
  0
INSERT
  5
52F
330
1F
100
AcDbEntity
  8
SLD-0
100
AcDbBlockReference
  2
SW_CENTERMARKSYMBOL_4
 10
156.6865339244
 20
225.9244224371
 30
0.0
  0
INSERT
  5
537
330
1F
100
AcDbEntity
  8
SLD-0
100
AcDbBlockReference
  2
SW_CENTERMARKSYMBOL_5
 10
130.9365339244
 20
225.9244224371
 30
0.0
  0
INSERT
  5
53F
330
1F
100
AcDbEntity
  8
SLD-0
100
AcDbBlockReference
  2
SW_CENTERMARKSYMBOL_6
 10
146.4365339244
 20
225.9244224371
 30
0.0
  0
INSERT
  5
547
330
1F
100
AcDbEntity
  8
SLD-0
100
AcDbBlockReference
  2
SW_CENTERMARKSYMBOL_7
 10
120.6865339244
 20
100.9244224371
 30
0.0
  0
INSERT
  5
54F
330
1F
100
AcDbEntity
  8
SLD-0
100
AcDbBlockReference
  2
SW_CENTERMARKSYMBOL_8
 10
130.9365339244
 20
100.9244224371
 30
0.0
  0
INSERT
  5
557
330
1F
100
AcDbEntity
  8
SLD-0
100
AcDbBlockReference
  2
SW_CENTERMARKSYMBOL_9
 10
138.6865339244
 20
100.9244224371
 30
0.0
  0
INSERT
  5
55F
330
1F
100
AcDbEntity
  8
SLD-0
100
AcDbBlockReference
  2
SW_CENTERMARKSYMBOL_10
 10
146.4365339244
 20
100.9244224371
 30
0.0
  0
INSERT
  5
567
330
1F
100
AcDbEntity
  8
SLD-0
100
AcDbBlockReference
  2
SW_CENTERMARKSYMBOL_11
 10
156.6865339244
 20
100.9244224371
 30
0.0
  0
LINE
  5
568
330
1F
100
AcDbEntity
  8
SLD-0
  6
CENTERX2
370
    18
100
AcDbLine
 10
251.4273235871
 20
163.4244224371
 30
0.0
 11
26.7365339244
 21
163.4244224371
 31
0.0
  0
LINE
  5
569
330
1F
100
AcDbEntity
  8
SLD-0
  6
CENTERX2
370
    18
100
AcDbLine
 10
138.6865339244
 20
221.9244224371
 30
0.0
 11
138.6865339244
 21
104.9244224371
 31
0.0
  0
OLE2FRAME
  5
56A
330
1F
100
AcDbEntity
  8
0
100
AcDbOle2Frame
 70
     2
  3
Picture (Enhanced Metafile)
 10
13.3373858765
 20
29.4240099742
 30
0.0
 11
87.7116375241
 21
13.6355104326
 31
0.0
 71
     3
 72
     0
 73
     1
 90
     5248
310
8055902773D7BDAC2A401773ECEA8B6C3D400000000000000000CD241D788BED
310
55401773ECEA8B6C3D400000000000000000CD241D788BED554039F4989F6145
310
2B400000000000000000902773D7BDAC2A4039F4989F61452B40000000000000
310
0000000000000100000000010000010000000100000000000100000000140000
310
D0CF11E0A1B11AE1000000000000000000000000000000003E000300FEFF0900
310
0600000000000000000000000100000001000000000000000010000002000000
310
01000000FEFFFFFF0000000000000000FFFFFFFFFFFFFFFFFFFFFFFFFFFFFFFF
310
FFFFFFFFFFFFFFFFFFFFFFFFFFFFFFFFFFFFFFFFFFFFFFFFFFFFFFFFFFFFFFFF
310
FFFFFFFFFFFFFFFFFFFFFFFFFFFFFFFFFFFFFFFFFFFFFFFFFFFFFFFFFFFFFFFF
310
FFFFFFFFFFFFFFFFFFFFFFFFFFFFFFFFFFFFFFFFFFFFFFFFFFFFFFFFFFFFFFFF
310
FFFFFFFFFFFFFFFFFFFFFFFFFFFFFFFFFFFFFFFFFFFFFFFFFFFFFFFFFFFFFFFF
310
FFFFFFFFFFFFFFFFFFFFFFFFFFFFFFFFFFFFFFFFFFFFFFFFFFFFFFFFFFFFFFFF
310
FFFFFFFFFFFFFFFFFFFFFFFFFFFFFFFFFFFFFFFFFFFFFFFFFFFFFFFFFFFFFFFF
310
FFFFFFFFFFFFFFFFFFFFFFFFFFFFFFFFFFFFFFFFFFFFFFFFFFFFFFFFFFFFFFFF
310
FFFFFFFFFFFFFFFFFFFFFFFFFFFFFFFFFFFFFFFFFFFFFFFFFFFFFFFFFFFFFFFF
310
FFFFFFFFFFFFFFFFFFFFFFFFFFFFFFFFFFFFFFFFFFFFFFFFFFFFFFFFFFFFFFFF
310
FFFFFFFFFFFFFFFFFFFFFFFFFFFFFFFFFFFFFFFFFFFFFFFFFFFFFFFFFFFFFFFF
310
FFFFFFFFFFFFFFFFFFFFFFFFFFFFFFFFFFFFFFFFFFFFFFFFFFFFFFFFFFFFFFFF
310
FFFFFFFFFFFFFFFFFFFFFFFFFFFFFFFFFFFFFFFFFFFFFFFFFFFFFFFFFFFFFFFF
310
FFFFFFFFFFFFFFFFFFFFFFFFFFFFFFFFFFFFFFFFFFFFFFFFFFFFFFFFFFFFFFFF
310
FDFFFFFFFEFFFFFFFEFFFFFF0400000005000000060000000700000008000000
310
FEFFFFFFFFFFFFFFFFFFFFFFFFFFFFFFFFFFFFFFFFFFFFFFFFFFFFFFFFFFFFFF
310
FFFFFFFFFFFFFFFFFFFFFFFFFFFFFFFFFFFFFFFFFFFFFFFFFFFFFFFFFFFFFFFF
310
FFFFFFFFFFFFFFFFFFFFFFFFFFFFFFFFFFFFFFFFFFFFFFFFFFFFFFFFFFFFFFFF
310
FFFFFFFFFFFFFFFFFFFFFFFFFFFFFFFFFFFFFFFFFFFFFFFFFFFFFFFFFFFFFFFF
310
FFFFFFFFFFFFFFFFFFFFFFFFFFFFFFFFFFFFFFFFFFFFFFFFFFFFFFFFFFFFFFFF
310
FFFFFFFFFFFFFFFFFFFFFFFFFFFFFFFFFFFFFFFFFFFFFFFFFFFFFFFFFFFFFFFF
310
FFFFFFFFFFFFFFFFFFFFFFFFFFFFFFFFFFFFFFFFFFFFFFFFFFFFFFFFFFFFFFFF
310
FFFFFFFFFFFFFFFFFFFFFFFFFFFFFFFFFFFFFFFFFFFFFFFFFFFFFFFFFFFFFFFF
310
FFFFFFFFFFFFFFFFFFFFFFFFFFFFFFFFFFFFFFFFFFFFFFFFFFFFFFFFFFFFFFFF
310
FFFFFFFFFFFFFFFFFFFFFFFFFFFFFFFFFFFFFFFFFFFFFFFFFFFFFFFFFFFFFFFF
310
FFFFFFFFFFFFFFFFFFFFFFFFFFFFFFFFFFFFFFFFFFFFFFFFFFFFFFFFFFFFFFFF
310
FFFFFFFFFFFFFFFFFFFFFFFFFFFFFFFFFFFFFFFFFFFFFFFFFFFFFFFFFFFFFFFF
310
FFFFFFFFFFFFFFFFFFFFFFFFFFFFFFFFFFFFFFFFFFFFFFFFFFFFFFFFFFFFFFFF
310
FFFFFFFFFFFFFFFFFFFFFFFFFFFFFFFFFFFFFFFFFFFFFFFFFFFFFFFFFFFFFFFF
310
FFFFFFFFFFFFFFFFFFFFFFFFFFFFFFFFFFFFFFFFFFFFFFFFFFFFFFFFFFFFFFFF
310
52006F006F007400200045006E00740072007900000000000000000000000000
310
0000000000000000000000000000000000000000000000000000000000000000
310
16000500FFFFFFFFFFFFFFFF020000001903000000000000C000000000000046
310
00000000000000000000000050ACE3694BDFD90103000000000C000000000000
310
01004F006C006500000000000000000000000000000000000000000000000000
310
0000000000000000000000000000000000000000000000000000000000000000
310
0A000200FFFFFFFFFFFFFFFFFFFFFFFF00000000000000000000000000000000
310
0000000000000000000000000000000000000000000000001400000000000000
310
010043006F006D0070004F0062006A0000000000000000000000000000000000
310
0000000000000000000000000000000000000000000000000000000000000000
310
120002010100000003000000FFFFFFFF00000000000000000000000000000000
310
0000000000000000000000000000000000000000010000005800000000000000
310
43004F004E00540045004E005400530000000000000000000000000000000000
310
0000000000000000000000000000000000000000000000000000000000000000
310
12000200FFFFFFFFFFFFFFFFFFFFFFFF00000000000000000000000000000000
310
000000000000000000000000000000000000000003000000040B000000000000
310
FEFFFFFF02000000FEFFFFFF0400000005000000060000000700000008000000
310
090000000A0000000B0000000C0000000D0000000E0000000F00000010000000
310
1100000012000000130000001400000015000000160000001700000018000000
310
190000001A0000001B0000001C0000001D0000001E0000001F00000020000000
310
2100000022000000230000002400000025000000260000002700000028000000
310
290000002A0000002B0000002C0000002D0000002E0000002F000000FEFFFFFF
310
FFFFFFFFFFFFFFFFFFFFFFFFFFFFFFFFFFFFFFFFFFFFFFFFFFFFFFFFFFFFFFFF
310
FFFFFFFFFFFFFFFFFFFFFFFFFFFFFFFFFFFFFFFFFFFFFFFFFFFFFFFFFFFFFFFF
310
FFFFFFFFFFFFFFFFFFFFFFFFFFFFFFFFFFFFFFFFFFFFFFFFFFFFFFFFFFFFFFFF
310
FFFFFFFFFFFFFFFFFFFFFFFFFFFFFFFFFFFFFFFFFFFFFFFFFFFFFFFFFFFFFFFF
310
FFFFFFFFFFFFFFFFFFFFFFFFFFFFFFFFFFFFFFFFFFFFFFFFFFFFFFFFFFFFFFFF
310
FFFFFFFFFFFFFFFFFFFFFFFFFFFFFFFFFFFFFFFFFFFFFFFFFFFFFFFFFFFFFFFF
310
FFFFFFFFFFFFFFFFFFFFFFFFFFFFFFFFFFFFFFFFFFFFFFFFFFFFFFFFFFFFFFFF
310
FFFFFFFFFFFFFFFFFFFFFFFFFFFFFFFFFFFFFFFFFFFFFFFFFFFFFFFFFFFFFFFF
310
FFFFFFFFFFFFFFFFFFFFFFFFFFFFFFFFFFFFFFFFFFFFFFFFFFFFFFFFFFFFFFFF
310
FFFFFFFFFFFFFFFFFFFFFFFFFFFFFFFFFFFFFFFFFFFFFFFFFFFFFFFFFFFFFFFF
310
0100000200000000000000000000000000000000000000000000000000000000
310
0000000000000000000000000000000000000000000000000000000000000000
310
0100FEFF030A0000FFFFFFFF1903000000000000C0000000000000461C000000
310
506963747572652028456E68616E636564204D65746166696C652900FFFFFFFF
310
0E00000000000000F439B2710000000000000000000000000000000000000000
310
0000000000000000000000000000000000000000000000000000000000000000
310
74000000010000006C000000FD0A000094000000870B0000B200000062570100
310
111200003B680100BB15000020454D46000001008C0A00003800000003000000
310
0D0000005800000000000000000400000003000040010000F000000041006400
310
6F0062006500200053007900730074007400530079006D000100000074000000
310
FD0A000094000000870B0000B200000062570100111200003B680100BB150000
310
20454D46000001008C0A000038000000030000000D0000005800000000000000
310
000400000003000040010000F0000000410064006F0062006500200053007900
310
7300740065006D0073000000110000000C00000008000000120000000C000000
310
010000000A0000001000000000000000000000000C0000001000000000000000
310
000000000900000010000000D7040000110100000B000000100000009D010000
310
5B000000130000000C0000000200000027000000180000000100000000000000
310
0000000000000000250000000C000000010000005F0000003400000002000000
310
2C000000000000002C0000000000000005000000000000000000000000000000
310
0000000000000000250000000C000000020000003B000000080000001B000000
310
100000003D210000F20100005800000048010000FC0A000093000000190B0000
310
B30000004B0000004921F9014921F9014921F9014921DA014921DA014921DA01
310
4921D5014621D0014221CD012821BE012821BE012821BE012321BB011D21BB01
310
1821BE01FE20CD01FE20CD01FE20CD01FA20D001F720D501F720DA01F720F801
310
F720F801F720F801F720FE01FA200302FE200602182115021821150218211502
310
1D21170223211702282115024321050243210502432105023721FE013721FE01
310
3721FE013521FD013521FD013521FD0122210902222109022221090221210902
310
1F2109021E2109020621FA010621FA010621FA010521FA010421F9010421F701
310
0421DB010421DB010421DB010421DA010521D9010621D8011E21CA011E21CA01
310
1E21CA011F21CA012121CA012221CA013A21D8013A21D8013A21D8013B21D901
310
3C21DA013C21DB013C21F2013C21F2013C21F2013D000000080000003C000000
310
080000003E000000180000009F8601009F8601006179FEFF6179FEFF13000000
310
0C000000020000003B000000080000001B000000100000002F210000E4010000
310
58000000C4000000050B00009D000000100B0000A90000002A0000002F21EF01
310
2F21EF012F21EF012F21F1012E21F2012C21F3012321F9012321F9012321F901
310
2221FA012121FA012021FA011F21FA011E21FA011D21F9011421F4011421F401
310
1421F4011221F3011121F1011121EF011121E4011121E4011121E4011121E201
310
1221E0011321DF011D21DA011D21DA011D21DA011E21D9011F21D9012021D901
310
2121D9012221D9012321DA012C21DF012C21DF012C21DF012E21E0012F21E201
310
2F21E4013D000000080000003C000000080000003E000000180000009F860100
310
9F8601006179FEFF6179FEFF130000000C000000020000005B00000038000000
310
3D0B0000A3000000430B0000A6000000010000000500000005000000B821F001
310
C821F001C821EB01B821EB01B821F001130000000C000000020000003B000000
310
080000001B0000001000000004220000E70100005800000084010000450B0000
310
9B000000590B0000AA0000005A0000000122E601FD21E501F621E501E421E501
310
E421E501E421E501D921E501D921E301D921E001D921DD01DA21DB01DC21DA01
310
DE21DA01E221D901E921D901EF21D901EF21D901EF21D9010022D9010022DB01
310
0022E0010022E1010022E1010022E1010722E1010722E1010722E1010722DF01
310
0722DF010722DF010722DB010622D8010322D6010022D401FB21D401F321D401
310
E521D401E521D401E521D401D921D401D121D601D121DF01D121E501D321E801
310
D721E901DB21EB01E221EB01EC21EB01F821EB01F821EB01F821EB010022EB01
310
0122ED010122F1010122F5010022F701F621F701E221F701E221F701E221F701
310
DA21F701D921F501D921F201D921EF01D921EF01D921EF01D121EF01D121EF01
310
D121EF01D121F201D121F201D121F201D121FC01DB21FD01E421FD01F521FD01
310
F521FD01F521FD01F921FD01FE21FD010222FB010622FA010922F6010922F201
310
0922EF010922EF010922EF010922EC010722E9010422E7013C00000008000000
310
3E000000180000009F8601009F8601006179FEFF6179FEFF130000000C000000
310
020000005B0000004C000000590B00009B0000006F0B0000AA00000001000000
310
0A0000000A0000002C22E6011722D4010C22D4012822EC012822FC013022FC01
310
3022EC014C22D4014122D4012C22E601130000000C000000020000003B000000
310
080000001B0000001000000082220000E701000058000000780100006F0B0000
310
9B000000830B0000AA000000570000007F22E6017B22E5017422E5016122E501
310
6122E5016122E5015722E5015722E3015722E0015722DB015822D9016622D901
310
6D22D9016D22D9016D22D9017E22D9017E22DB017E22E0017E22E1017E22E101
310
7E22E1018522E1018522E1018522E1018522DF018522DF018522DF018522DB01
310
8422D8018122D6017E22D4017922D4017122D4016322D4016322D4016322D401
310
5722D4014F22D6014F22DF014F22E5015122E8015522E9015922EB015F22EB01
310
6A22EB017622EB017622EB017622EB017E22EB017F22ED017F22F1017F22F501
310
7D22F7017422F7016022F7016022F7016022F7015822F7015722F5015722F201
310
5722EF015722EF015722EF014F22EF014F22EF014F22EF014F22F2014F22F201
310
4F22F2014F22FC015822FD016122FD017322FD017322FD017322FD017722FD01
310
7C22FD018022FB018422FA018622F6018622F2018622EF018622EF018622EF01
310
8622EC018522E9018222E7013C000000080000003E000000180000009F860100
310
9F8601006179FEFF6179FEFF130000000C000000020000005B00000038000000
310
300B0000A6000000340B0000AC00000001000000050000000500000093210202
310
9A2102029A21F3019321F30193210202130000000C000000020000003B000000
310
080000001B000000100000009B210000D40100005800000018010000240B0000
310
9B0000003A0B0000AA0000003F0000008021D4018021D4018021D4017421D401
310
6F21D8016F21E3016F21EE016F21EE016F21EE016F21F8017421FD018021FD01
310
8F21FD018F21FD018F21FD018F21F7018F21F7018F21F7018121F7018121F701
310
8121F7017921F7017621F5017621F0017621E1017621E1017621E1017621DC01
310
7921D9018121D9019A21D9019A21D9019A21D901A121D901A421DC01A421E101
310
A421F001A421F001A421F001A421F401A321F6019E21F7019E21F7019E21F701
310
9E21F7019E21FD019E21FD019E21FD019F21FD019F21FD019F21FD01A421FC01
310
A721FB01A921F801AB21F601AC21F201AC21EE01AC21E301AC21E301AC21E301
310
AC21D801A721D4019B21D4013C000000080000003E000000180000009F860100
310
9F8601006179FEFF6179FEFF130000000C000000020000005B0000006C000000
310
840B00009B000000870B00009F0000000100000012000000120000009222D401
310
9122D8019022D4018E22D4018E22DA018F22DA018F22D6018F22D5019022D601
310
9122DA019122DA019222D6019322D5019322D6019322DA019422DA019422D401
310
9222D401130000000C000000020000005B00000048000000830B00009B000000
310
850B00009F0000000100000009000000090000008A22D5018B22D5018B22DA01
310
8C22DA018C22D5018E22D5018E22D4018A22D4018A22D501280000000C000000
310
01000000280000000C000000020000000E000000140000000000000010000000
310
1400000000000000000000000000000000000000000000000000000000000000
310
0000000000000000000000000000000000000000000000000000000000000000
  1
OLE
  0
ENDSEC
  0
SECTION
  2
OBJECTS
  0
DICTIONARY
  5
C
330
0
100
AcDbDictionary
281
     1
  3
ACAD_GROUP
350
D
  3
ACAD_LAYOUT
350
1A
  3
ACAD_MLINESTYLE
350
17
  3
ACAD_PLOTSETTINGS
350
19
  3
ACAD_PLOTSTYLENAME
350
E
  3
ACAD_SCALELIST
350
47
  3
DWGPROPS
350
56B
  0
DICTIONARY
  5
D
102
{ACAD_REACTORS
330
C
102
}
330
C
100
AcDbDictionary
281
     1
  0
DICTIONARY
  5
1A
102
{ACAD_REACTORS
330
C
102
}
330
C
100
AcDbDictionary
281
     1
  3
Layout1
350
1E
  3
Layout2
350
26
  3
Model
350
22
  0
DICTIONARY
  5
17
102
{ACAD_REACTORS
330
C
102
}
330
C
100
AcDbDictionary
281
     1
  3
Standard
350
18
  0
DICTIONARY
  5
19
102
{ACAD_REACTORS
330
C
102
}
330
C
100
AcDbDictionary
281
     1
  0
ACDBDICTIONARYWDFLT
  5
E
102
{ACAD_REACTORS
330
C
102
}
330
C
100
AcDbDictionary
281
     1
  3
Normal
350
F
100
AcDbDictionaryWithDefault
340
F
  0
DICTIONARY
  5
47
102
{ACAD_REACTORS
330
C
102
}
330
C
100
AcDbDictionary
281
     1
  3
A0
350
48
  3
A1
350
49
  3
A2
350
4A
  3
A3
350
4B
  3
A4
350
4C
  3
A5
350
4D
  3
A6
350
4E
  3
A7
350
4F
  3
A8
350
50
  3
A9
350
51
  3
B0
350
52
  3
B1
350
53
  3
B2
350
54
  3
B3
350
55
  3
B4
350
56
  3
B5
350
57
  3
B6
350
58
  0
XRECORD
  5
56B
102
{ACAD_REACTORS
330
C
102
}
330
C
100
AcDbXrecord
280
     1
  1
DWGPROPS COOKIE
  2

  3

  4

  6

  7

  8
Douglas.Green
  9

300
=
301
=
302
=
303
=
304
=
305
=
306
=
307
=
308
=
309
=
 40
0.0
 41
2460192.679368727
 42
2460192.67937066
  1

 90
        0
  0
LAYOUT
  5
1E
102
{ACAD_REACTORS
330
1A
102
}
330
1A
100
AcDbPlotSettings
  1

  2
none_device
  4

  6

 40
0.0
 41
0.0
 42
0.0
 43
0.0
 44
0.0
 45
0.0
 46
0.0
 47
0.0
 48
0.0
 49
0.0
140
0.0
141
0.0
142
1.0
143
1.0
 70
   688
 72
     1
 73
     0
 74
     5
  7

 75
    16
147
1.0
148
0.0
149
0.0
100
AcDbLayout
  1
Layout1
 70
     1
 71
     1
 10
0.0
 20
0.0
 11
420.0
 21
297.0
 12
0.0
 22
0.0
 32
0.0
 14
1.0000000000E+20
 24
1.0000000000E+20
 34
1.0000000000E+20
 15
-1.0000000000E+20
 25
-1.0000000000E+20
 35
-1.0000000000E+20
146
0.0
 13
0.0
 23
0.0
 33
0.0
 16
1.0
 26
0.0
 36
0.0
 17
0.0
 27
1.0
 37
0.0
 76
     0
330
1B
  0
LAYOUT
  5
26
102
{ACAD_REACTORS
330
1A
102
}
330
1A
100
AcDbPlotSettings
  1

  2
none_device
  4

  6

 40
0.0
 41
0.0
 42
0.0
 43
0.0
 44
0.0
 45
0.0
 46
0.0
 47
0.0
 48
0.0
 49
0.0
140
0.0
141
0.0
142
1.0
143
1.0
 70
   688
 72
     1
 73
     0
 74
     5
  7

 75
    16
147
1.0
148
0.0
149
0.0
100
AcDbLayout
  1
Layout2
 70
     1
 71
     2
 10
0.0
 20
0.0
 11
0.0
 21
0.0
 12
0.0
 22
0.0
 32
0.0
 14
0.0
 24
0.0
 34
0.0
 15
0.0
 25
0.0
 35
0.0
146
0.0
 13
0.0
 23
0.0
 33
0.0
 16
1.0
 26
0.0
 36
0.0
 17
0.0
 27
1.0
 37
0.0
 76
     0
330
23
  0
LAYOUT
  5
22
102
{ACAD_REACTORS
330
1A
102
}
330
1A
100
AcDbPlotSettings
  1

  2
none_device
  4
Letter_(8.50_x_11.00_Inches)
  6

 40
6.35
 41
6.35
 42
6.35000508
 43
6.35000508
 44
215.9
 45
279.4
 46
0.0
 47
0.0
 48
0.0
 49
0.0
140
0.0
141
0.0
142
1.0
143
1.0
 70
  1712
 72
     1
 73
     0
 74
     0
  7

 75
     0
147
1.0
148
0.0
149
0.0
100
AcDbLayout
  1
Model
 70
     1
 71
     0
 10
0.0
 20
0.0
 11
863.6
 21
558.8
 12
0.0
 22
0.0
 32
0.0
 14
0.0
 24
0.0
 34
0.0
 15
863.6
 25
558.8
 35
0.0
146
0.0
 13
0.0
 23
0.0
 33
0.0
 16
1.0
 26
0.0
 36
0.0
 17
0.0
 27
1.0
 37
0.0
 76
     0
330
1F
331
29
  0
MLINESTYLE
  5
18
102
{ACAD_REACTORS
330
17
102
}
330
17
100
AcDbMlineStyle
  2
Standard
 70
     0
  3

 62
   256
 51
90.0
 52
90.0
 71
     2
 49
0.5
 62
   256
  6
BYLAYER
 49
-0.5
 62
   256
  6
BYLAYER
  0
ACDBPLACEHOLDER
  5
F
102
{ACAD_REACTORS
330
E
102
}
330
E
  0
SCALE
  5
48
102
{ACAD_REACTORS
330
47
102
}
330
47
100
AcDbScale
 70
     0
300
1:1
140
1.0
141
1.0
290
     1
  0
SCALE
  5
49
102
{ACAD_REACTORS
330
47
102
}
330
47
100
AcDbScale
 70
     0
300
1:2
140
1.0
141
2.0
290
     0
  0
SCALE
  5
4A
102
{ACAD_REACTORS
330
47
102
}
330
47
100
AcDbScale
 70
     0
300
1:4
140
1.0
141
4.0
290
     0
  0
SCALE
  5
4B
102
{ACAD_REACTORS
330
47
102
}
330
47
100
AcDbScale
 70
     0
300
1:5
140
1.0
141
5.0
290
     0
  0
SCALE
  5
4C
102
{ACAD_REACTORS
330
47
102
}
330
47
100
AcDbScale
 70
     0
300
1:8
140
1.0
141
8.0
290
     0
  0
SCALE
  5
4D
102
{ACAD_REACTORS
330
47
102
}
330
47
100
AcDbScale
 70
     0
300
1:10
140
1.0
141
10.0
290
     0
  0
SCALE
  5
4E
102
{ACAD_REACTORS
330
47
102
}
330
47
100
AcDbScale
 70
     0
300
1:16
140
1.0
141
16.0
290
     0
  0
SCALE
  5
4F
102
{ACAD_REACTORS
330
47
102
}
330
47
100
AcDbScale
 70
     0
300
1:20
140
1.0
141
20.0
290
     0
  0
SCALE
  5
50
102
{ACAD_REACTORS
330
47
102
}
330
47
100
AcDbScale
 70
     0
300
1:30
140
1.0
141
30.0
290
     0
  0
SCALE
  5
51
102
{ACAD_REACTORS
330
47
102
}
330
47
100
AcDbScale
 70
     0
300
1:40
140
1.0
141
40.0
290
     0
  0
SCALE
  5
52
102
{ACAD_REACTORS
330
47
102
}
330
47
100
AcDbScale
 70
     0
300
1:50
140
1.0
141
50.0
290
     0
  0
SCALE
  5
53
102
{ACAD_REACTORS
330
47
102
}
330
47
100
AcDbScale
 70
     0
300
1:100
140
1.0
141
100.0
290
     0
  0
SCALE
  5
54
102
{ACAD_REACTORS
330
47
102
}
330
47
100
AcDbScale
 70
     0
300
2:1
140
2.0
141
1.0
290
     0
  0
SCALE
  5
55
102
{ACAD_REACTORS
330
47
102
}
330
47
100
AcDbScale
 70
     0
300
4:1
140
4.0
141
1.0
290
     0
  0
SCALE
  5
56
102
{ACAD_REACTORS
330
47
102
}
330
47
100
AcDbScale
 70
     0
300
8:1
140
8.0
141
1.0
290
     0
  0
SCALE
  5
57
102
{ACAD_REACTORS
330
47
102
}
330
47
100
AcDbScale
 70
     0
300
10:1
140
10.0
141
1.0
290
     0
  0
SCALE
  5
58
102
{ACAD_REACTORS
330
47
102
}
330
47
100
AcDbScale
 70
     0
300
100:1
140
100.0
141
1.0
290
     0
  0
ENDSEC
  0
EOF
